Писатель и вождь: Илья Эренбург. Собачья жизнь (Владимир Мелетин) [2006, документальный, биографический, DVB]


Статистика раздачи [Обновить пиров]
Размер:  2.25 GB   |    Зарегистрирован:  8 месяцев 21 день   |    Скачан:  0 раз

Полного источника не было: Никогда

 
   
 
 
 

[Цитировать]

Писатель и вождь
Илья Эренбург. Собачья жизнь- Дата/Год выпуска: 2006
Страна: Россия
Жанр: документальный, биографический
Продолжительность: 01:44:00
Перевод: Не требуется
Русские субтитры: нет
Режиссер: Владимир Мелетин
Телеканал: Время: далекое и близкоеУчастники: актер Сергей Юрский (читает Эренбурга); биограф Борис Фрезинский; писатели Василий Аксенов и Бенедикт Сарнов; историк Рой Медведев; Юлия Мадора - секретарь Эренбурга
Описание: Когда в 1949 году Сталину представили список лиц, намеченных к аресту по делу Еврейского антифашистского комитета, единственным человеком, против фамилии которого вместо "арестовать" была неясная закорючка, оказался Илья Эренбург. Эта загадочная литера спасла жизнь писателя: он был отнесен к разряду незаменимых. Везучему человеку, талантливому прозаику, тонкому поэту и блистательному публицисту, Илье Эренбургу к тому же удалось решить дилемму, перед которой пасовали многие творцы. Возможно ли поставить свой талант на службу режиму и делать многое режиму вопреки? Своей жизнью Эренбург доказал, что это реально.
Доп. информация: DVB-S

качество: DVB
формат: MKV
Видео: MPEG Video 2, 720x576@768x576 (4:3), 25 fps, ~2846 kbps avg, 0.274 bit/pixel
Аудио: MPEG Audio 2, 2 ch, 48 kHz, ~192.00 kbps avg

MediaInfo

Общее
Уникальный идентификатор : 202099855648203263869924821530651197473 (0x980B043125973EEABC8CC1DAD6ED0021)
Полное имя : F:\My Torrents 3\[apreder]Ilya_Ehrenburg(2006)DVB.mkv
Формат : Matroska
Версия формата : Version 2
Размер файла : 2,25 Гбайт
Продолжительность : 1 ч. 44 м.
Режим общего битрейта : Переменный
Общий поток : 3099 Кбит/сек
Дата кодирования : UTC 2015-09-14 03:20:29
Программа кодирования : mkvmerge v8.3.0 ('Over the Horizon') 64bit
Библиотека кодирования : libebml v1.3.1 + libmatroska v1.4.2
Attachements : cover.jpg / cover_small.jpg
TITLE : Писатель и вождь
DATE_RELEASED : 2006-00-00
SUMMARY : Илья Эренбург. Собачья жизнь
LAW_RATING : 16+
GENRE : Documentary
ACTOR : Сергей Юрский
DIRECTOR : Владимир Мелетин
KEYWORDS : rutracker.org
Видео
Идентификатор : 1
Формат : MPEG Video
Версия формата : Version 2
Профиль формата : Main@Main
Параметр BVOP формата : Да
Параметр матрицы формата : Выборочная
Параметр GOP формата : M=3, N=24
Format_Settings_PictureStructure : Frame
Идентификатор кодека : V_MPEG2
Идентификатор кодека/Информация : MPEG 1 or 2 Video
Продолжительность : 1 ч. 44 м.
Вид битрейта : Переменный
Битрейт : 2846 Кбит/сек
Ширина : 720 пикселей
Высота : 576 пикселей
Соотношение сторон : 4:3
Режим частоты кадров : Постоянный
Частота кадров : 25,000 кадров/сек
Стандарт вещания : PAL
Цветовое пространство : YUV
Субдискретизация насыщенности : 4:2:0
Битовая глубина : 8 бит
Тип развёртки : Чересстрочная
Порядок развёртки : Верхнее поле первое
Метод сжатия : С потерями
Бит/(Пиксели*Кадры) : 0.274
Временной код первого кадра : 00:00:00:00
Оригинал временного кода : Group of pictures header
Размер потока : 2,07 Гбайт (92%)
Default : Да
Forced : Нет
Аудио
Идентификатор : 2
Формат : MPEG Audio
Версия формата : Version 1
Профиль формата : Layer 2
Идентификатор кодека : A_MPEG/L2
Идентификатор кодека/Подсказка : MP2
Продолжительность : 1 ч. 44 м.
Вид битрейта : Постоянный
Битрейт : 192 Кбит/сек
Каналы : 2 канала
Частота : 48,0 КГц
Метод сжатия : С потерями
Размер потока : 143 Мбайт (6%)
Язык : Russian
Default : Да
Forced : Нет

Скриншоты

Резервные скриншоты

-
[teatrix.ru].t22257.torrent 
Торрент: Зарегистрирован [ 2016-03-20 12:39 ] · 9AE8BE8FB9242A4955CB4783695ADE2FEF23864E

Скачать .torrent

Скачать

12 KB

Статус: проверено
Скачан: 0 раз
Размер: 2.25 GB
terms.php



Быстрый ответ

Имя:

      
Для отправки сообщений необходимо включить JavaScript
Показать сообщения:    

Текущее время: 11-Дек 05:19

Часовой пояс: UTC + 3


Вы можете начинать темы
Вы можете отвечать на сообщения
Вы не можете редактировать свои сообщения
Вы не можете удалять свои сообщения
Вы не можете голосовать в опросах
Вы не можете прикреплять файлы к сообщениям
Вы можете скачивать файлы