The Yoga Collective - Forearm Balance Prep 30 min [2015, H.264, WEBRip, ENG] (Видеоурок)


Статистика раздачи [Обновить пиров]
Размер:  416 MB   |    Зарегистрирован:  8 месяцев 14 дней   |    Скачан:  0 раз

Полного источника не было: Никогда

 
   
 
 
 

[Цитировать]

Forearm Balance Prep 30 min- -Производитель: The Yoga Collective
Тип раздаваемого материала: Видеоурок
Автор: Andrea Jensen
Продолжительность: 29mn 18s
Сайт производителя: www.theyogacollective.com
Год выпуска: 2015
Язык: Английский
Перевод: Отсутствует
Описание: Этот 30-минутный класс предназначен для опытных юристов и работает на укрепление контроля над вооружениями, назад, и плечи. A Vinyasa-йогой класса, основное внимание на основных и плечи, а также прочности учений и инверсия.
Поток от одним из сложных создают в следующем в этом Андреа Дженсен, так как каждый представляет готовит Вас к "путешествие в полном предплечье баланс", также известный как pincha mayurasana или виш поза павлина. Эта поза требует полной концентрации, а также терпение и баланс, и в то время как она абсолютно никакого давления на голове, но все фантастические преимущества вверх дном.
Помните, что при обучении pincha mayurasana, не редки случаи падения, поэтому обучение тому, как на "приседания и рулон" также имеет важное значение. Развить силу в области контроля над вооружениями, назад, и плечи как вам спокойствие и освободить его от натяжения. Присоединиться к Андреа и задача себя сегодня!-This 30-minute class is designed for advanced practitioners and works on strengthening the arms, back, and shoulders. A Vinyasa-style yoga class, focus is on the core and shoulders as well as strength exercises and inversions.
Flow from one challenging pose into the next in this Andrea Jensen led class, as each pose prepares you for the "journey into full forearm balance," also known as pincha mayurasana, or Feathered Peacock Pose. This pose requires complete concentration as well as patience and balance, and while it puts absolutely no pressure on the head, it features all the fantastic benefits of being upside down.
Remember that when learning pincha mayurasana, it’s not uncommon to fall, which is why learning how to "tuck and roll" is also important. Build strength in the arms, back, and shoulders as you calm the mind and release it from the tension of daily stress. Join Andrea and challenge yourself today!
Level: Advanced
Style: Vinyasa
Focus: Core, Shoulders, Inversions, Strength--

Media Info

General
Complete name : Andrea Jensen Yoga - Forearm Balance Prep 30 min.mp4
Format : MPEG-4
Format profile : Base Media / Version 2
Codec ID : mp42
File size : 416 MiB
Duration : 29mn 18s
Overall bit rate mode : Variable
Overall bit rate : 1 985 Kbps
Encoded date : UTC 2036-02-06 06:28:16
Tagged date : UTC 2036-02-06 06:28:16
Writing application : HandBrake 0.10.2 2015060900
Video
ID : 1
Format : AVC
Format/Info : Advanced Video Codec
Format profile : Main@L4.0
Format settings, CABAC : Yes
Format settings, ReFrames : 4 frames
Codec ID : avc1
Codec ID/Info : Advanced Video Coding
Duration : 29mn 18s
Bit rate : 1 818 Kbps
Width : 1 280 pixels
Height : 720 pixels
Display aspect ratio : 16:9
Frame rate mode : Variable
Frame rate : 23.976 fps
Minimum frame rate : 23.974 fps
Maximum frame rate : 23.981 fps
Color space : YUV
Chroma subsampling : 4:2:0
Bit depth : 8 bits
Scan type : Progressive
Bits/(Pixel*Frame) : 0.082
Stream size : 381 MiB (92%)
Writing library : x264 core 142 r2479 dd79a61
Encoded date : UTC 2036-02-06 06:28:16
Tagged date : UTC 2036-02-06 06:28:16
Color primaries : BT.709-5, BT.1361, IEC 61966-2-4, SMPTE RP177
Transfer characteristics : BT.709-5, BT.1361
Matrix coefficients : BT.709-5, BT.1361, IEC 61966-2-4 709, SMPTE RP177
Audio
ID : 2
Format : AAC
Format/Info : Advanced Audio Codec
Format profile : LC
Codec ID : 40
Duration : 29mn 18s
Bit rate mode : Variable
Bit rate : 160 Kbps
Channel(s) : 2 channels
Channel positions : Front: L R
Sampling rate : 48.0 KHz
Compression mode : Lossy
Stream size : 33.6 MiB (8%)
Title : Stereo
Encoded date : UTC 2036-02-06 06:28:16
Tagged date : UTC 2036-02-06 06:28:16
Формат: MP4
Видео кодек: H.264
Аудио кодек: AAC
Видео: AVC, 1280x720, 16:9, 25.000 fps, ~ 1818 Kbps
Аудио: AAC, 48.0 KHz, ~ 130.0 Kbps, 2 channels

Скриншоты

[teatrix.ru].t22259.torrent 
Торрент: Зарегистрирован [ 2016-03-20 12:39 ] · 7B51C088F90DA91A17E3C825756BA49F887C901D

Скачать .torrent

Скачать

33 KB

Статус: проверено
Скачан: 0 раз
Размер: 416 MB
terms.php



Быстрый ответ

Имя:

      
Для отправки сообщений необходимо включить JavaScript
Показать сообщения:    

Текущее время: 03-Дек 16:43

Часовой пояс: UTC + 3


Вы можете начинать темы
Вы можете отвечать на сообщения
Вы не можете редактировать свои сообщения
Вы не можете удалять свои сообщения
Вы не можете голосовать в опросах
Вы не можете прикреплять файлы к сообщениям
Вы можете скачивать файлы