Последствия любви / Le conseguenze dell'amore (Паоло Соррентино / Paolo Sorrentino) [2004, Италия, драма, криминал, триллер, романтический, нуар, DVDRip-AVC] MVO (Первый канал) + Original Ita + Sub Rus


Статистика раздачи [Обновить пиров]
Размер:  1.46 GB   |    Зарегистрирован:  8 месяцев 20 дней   |    Скачан:  0 раз

Полного источника не было: Никогда

 
   
 
 
 

[Цитировать]

Последствия любвиLe conseguenze dell'amore- Год выпуска: 2004
Страна: Италия
Жанр: драма, криминал, триллер, романтический, нуар-Продолжительность: 01:39:32
Перевод: Профессиональный (многоголосый закадровый) Первый канал
Режиссёр: Паоло Соррентино / Paolo Sorrentino
В ролях: Тони Сервилло, Оливия Маньяни, Адриано Джаннини, Антонио Баллерио, Джианна Паола Скаффиди, Нино Д'Агата, Винченцо Витальяно, Диего Рибон, Джилберто Идонеа, Джизельда Володи, Джованни Веттораццо, Гаэтано Бруно, Ана Валерия Дини, Витторио Ди Прима, Анджела Гудвин, Раффаель Пизу, Роландо Равелло, Карло Белтрами и др.-Описание: Когда-то бизнесконсультант Титта ди Джироламо вложил огромные средства мафии в покупку танкера. Сделка сорвалась, а деньги пропали. «Серьезные люди» в тот момент не стали его убивать, а придумали для него другую работу. Теперь он до конца жизни принадлежит им с потрохами. Титта живет в тихом швейцарском отеле. Периодически курьер доставляет ему чемодан с несколькими миллионами долларов, а в его обязанности входит переправка денег в банк. Уже восемь лет он как робот: отель - банк, банк - отель. Никакой надежды на свободу. Но однажды в день получения очередной «посылки» он обнаруживает в своем номере киллеров-гастролеров…- -Качество: DVDRip-AVC
Формат: MKV
Видео: x264, 712x432@1012x432 (2.35:1), 25 fps, ~ 1713 kbps
Аудио #1: Russian 48 kHz, AC3, 2 ch, ~192.00 kbps avg |Первый канал|
Аудио #2: Italian 48 kHz, AC3, 2 ch, ~192.00 kbps avg
Субтитры: русские (Cinema Prestige)-

MediaInfo

General
Unique ID : 177166601540141574874942806547555072869 (0x85490BDAA7787BF3A25AD5694216BB65)
Complete name : D:\Фильмы\Le.Conseguenze.Dell'Amore.2004.DVDRip-AVC.x264.AC3.-whip93.mkv
Format : Matroska
Format version : Version 4 / Version 2
File size : 1.46 GiB
Duration : 1h 39mn
Overall bit rate : 2 099 Kbps
Movie name : Le conseguenze dell'amore 2004 DVDRip-AVC -whip93
Encoded date : UTC 2015-09-14 12:36:28
Writing application : mkvmerge v8.2.0 ('World of Adventure') 64bit
Writing library : libebml v1.3.1 + libmatroska v1.4.2
Video
ID : 1
Format : AVC
Format/Info : Advanced Video Codec
Format profile : High@L4.1
Format settings, CABAC : Yes
Format settings, ReFrames : 12 frames
Codec ID : V_MPEG4/ISO/AVC
Duration : 1h 39mn
Bit rate : 1 713 Kbps
Width : 712 pixels
Height : 432 pixels
Display aspect ratio : 2.35:1
Frame rate mode : Constant
Frame rate : 25.000 fps
Color space : YUV
Chroma subsampling : 4:2:0
Bit depth : 8 bits
Scan type : Progressive
Bits/(Pixel*Frame) : 0.223
Stream size : 1.16 GiB (80%)
Writing library : x264 core 142 r2431 ac76440
Encoding settings : cabac=1 / ref=12 / deblock=1:-2:-2 / analyse=0x3:0x113 / me=umh / subme=11 / psy=1 / psy_rd=1.00:0.03 / mixed_ref=1 / me_range=48 / chroma_me=1 / trellis=2 / 8x8dct=1 / cqm=0 / deadzone=21,11 / fast_pskip=1 / chroma_qp_offset=-6 / threads=12 / lookahead_threads=3 / sliced_threads=0 / nr=0 / decimate=1 / interlaced=0 / bluray_compat=0 / constrained_intra=0 / bframes=13 / b_pyramid=2 / b_adapt=2 / b_bias=0 / direct=1 / weightb=1 / open_gop=0 / weightp=2 / keyint=250 / keyint_min=23 / scenecut=40 / intra_refresh=0 / rc_lookahead=60 / rc=2pass / mbtree=1 / bitrate=1713 / ratetol=1.0 / qcomp=0.70 / qpmin=0 / qpmax=69 / qpstep=4 / cplxblur=20.0 / qblur=0.5 / vbv_maxrate=14000 / vbv_bufsize=14000 / nal_hrd=none / filler=0 / ip_ratio=1.40 / aq=1:0.80
Default : Yes
Forced : No
Audio #1
ID : 2
Format : AC-3
Format/Info : Audio Coding 3
Mode extension : CM (complete main)
Format settings, Endianness : Big
Codec ID : A_AC3
Duration : 1h 39mn
Bit rate mode : Constant
Bit rate : 192 Kbps
Channel(s) : 2 channels
Channel positions : Front: L R
Sampling rate : 48.0 KHz
Bit depth : 16 bits
Compression mode : Lossy
Stream size : 137 MiB (9%)
Title : MVO (Первый канал)
Language : Russian
Default : Yes
Forced : No
Audio #2
ID : 3
Format : AC-3
Format/Info : Audio Coding 3
Mode extension : CM (complete main)
Format settings, Endianness : Big
Codec ID : A_AC3
Duration : 1h 39mn
Bit rate mode : Constant
Bit rate : 192 Kbps
Channel(s) : 2 channels
Channel positions : Front: L R
Sampling rate : 48.0 KHz
Bit depth : 16 bits
Compression mode : Lossy
Stream size : 137 MiB (9%)
Title : Original
Language : Italian
Default : No
Forced : No
Text
ID : 4
Format : UTF-8
Codec ID : S_TEXT/UTF8
Codec ID/Info : UTF-8 Plain Text
Language : Russian
Default : No
Forced : No
Menu
00:00:00.000 : en:Chapter 01
00:02:18.920 : en:Chapter 02
00:08:11.800 : en:Chapter 03
00:12:53.400 : en:Chapter 04
00:22:57.720 : en:Chapter 05
00:32:49.640 : en:Chapter 06
00:40:31.520 : en:Chapter 07
00:43:52.240 : en:Chapter 08
00:50:39.960 : en:Chapter 09
00:57:04.160 : en:Chapter 10
01:02:25.720 : en:Chapter 11
01:10:01.440 : en:Chapter 12
01:15:55.960 : en:Chapter 13
01:25:36.080 : en:Chapter 14
01:31:10.920 : en:Chapter 15
01:35:37.680 : en:Chapter 16

Скриншоты

-
[teatrix.ru].t22260.torrent 
Торрент: Зарегистрирован [ 2016-03-20 12:39 ] · 095E9F009F3CBA408D5D42C28F89AA4C0F2F35B4

Скачать .torrent

Скачать

15 KB

Статус: проверено
Скачан: 0 раз
Размер: 1.46 GB
terms.php



Быстрый ответ

Имя:

      
Для отправки сообщений необходимо включить JavaScript
Показать сообщения:    

Текущее время: 10-Дек 11:56

Часовой пояс: UTC + 3


Вы можете начинать темы
Вы можете отвечать на сообщения
Вы не можете редактировать свои сообщения
Вы не можете удалять свои сообщения
Вы не можете голосовать в опросах
Вы не можете прикреплять файлы к сообщениям
Вы можете скачивать файлы