Приглашение / L'invitation (Клод Горетта / Claude Goretta) [1973, Франция, Швейцария, сатирическая драма, комедия, DVDRip] DVO (Петербург, 5 канал) + Original Fre


Статистика раздачи [Обновить пиров]
Размер:  1.46 GB   |    Зарегистрирован:  8 месяцев 21 день   |    Скачан:  0 раз

Полного источника не было: Никогда

 
   
 
 
 

[Цитировать]

Приглашение/ L'invitation Страна: Франция , Швейцария
Жанр: Сатирическая драма, комедия
Год выпуска: 1973
Продолжительность: 01:35:34
Перевод: Профессиональный (двухголосый закадровый) - Петербург, 5 канал
Cубтитры: нет
Оригинальная аудиодорожка: французская
Режиссер: Клод Горетта / Claude Goretta
В ролях: Жан-Люк Бидо, Франсуа Симон, Жан Шампьон, Корин Кодери, Мишель Робен, Сесиль Вассор, Розин Рошетт, Жак Риспаль, Неиге Дольский, Пьер Колле.
Описание: Действие происходит на летней загородной вечеринке, куда служащий Реми пригласил своих коллег по работе. Холостяк с хорошими манерами, после смерти матери он решает изменить всю свою жизнь: берет отпуск и приглашает друзей и коллег на вечеринку в свой только что купленный загородный дом. Вырвавшись из лап повседневной рутины, гости веселятся и, забывая об условностях, начинают творить такое, о чем позже вспомнят со стыдом. Они флиртуют и даже танцуют импровизированный стриптиз. Любовная связь, давно оставленная Реми, всплывает, когда записной жеребец конторы Морис начинает соблазнять женщин. Поддерживать же относительный порядок должен культурный и терпеливый менеджер офиса месье Колар, хотя у него ничего не получается. В результате лишь дворецкий Эмиль помогает утихомирить гостей и восстановить порядок.
Сатирическая комедия, в которой режиссер особый интерес проявляет к внутреннему миру персонажей, тщательно исследуя человеческие взаимоотношения, делая основной упор на мельчай­шие детали их поведения в стремлении раскрыть их суть.

Доп. информация:
Исходник видео и оригинальной дорожки - DVD9 от colt451
Русская звуковая дорожка заимствована из раздачи camenzind
DVDRip и синхронизация русской аудиодорожки - Arle-kino

Качество видео: DVDRip
Формат видео: AVI
Видео: 720x400 (1.80:1), 25 fps, XviD build 50 ~1783 kbps avg, 0.25 bit/pixel
Аудио 1: 48 kHz, MPEG Layer 3, 2 ch, ~192.00 kbps avg - Rus
Аудио 2: 48 kHz, AC3 Dolby Digital, 2/0 (L,R) ch, ~192 kbps - Fre

MediaInfo

General
Complete name : D:\Public\L'Invitation.(1973).DVDRip.Rus-Fre.avi
Format : AVI
Format/Info : Audio Video Interleave
File size : 1.46 GiB
Duration : 1h 35mn
Overall bit rate : 2 183 Kbps
Writing application : VirtualDubMod 1.5.10.2 (build 2542/release)
Writing library : VirtualDubMod build 2542/release
Video
ID : 0
Format : MPEG-4 Visual
Format profile : Advanced Simple@L5
Format settings, BVOP : 1
Format settings, QPel : No
Format settings, GMC : No warppoints
Format settings, Matrix : Default (MPEG)
Codec ID : XVID
Codec ID/Hint : XviD
Duration : 1h 35mn
Bit rate : 1 785 Kbps
Width : 720 pixels
Height : 400 pixels
Display aspect ratio : 16:9
Frame rate : 25.000 fps
Color space : YUV
Chroma subsampling : 4:2:0
Bit depth : 8 bits
Scan type : Progressive
Compression mode : Lossy
Bits/(Pixel*Frame) : 0.248
Stream size : 1.19 GiB (82%)
Writing library : XviD 1.2.1 (UTC 2008-12-04)
Audio #1
ID : 1
Format : MPEG Audio
Format version : Version 1
Format profile : Layer 3
Codec ID : 55
Codec ID/Hint : MP3
Duration : 1h 35mn
Bit rate mode : Constant
Bit rate : 192 Kbps
Channel(s) : 2 channels
Sampling rate : 48.0 KHz
Compression mode : Lossy
Stream size : 131 MiB (9%)
Alignment : Aligned on interleaves
Interleave, duration : 40 ms (1.00 video frame)
Interleave, preload duration : 504 ms
Title : Rus
Writing library : LAME3.98r
Encoding settings : -m s -V 4 -q 2 -lowpass 18.6 -b 192
Audio #2
ID : 2
Format : AC-3
Format/Info : Audio Coding 3
Mode extension : CM (complete main)
Codec ID : 2000
Duration : 1h 35mn
Bit rate mode : Constant
Bit rate : 192 Kbps
Channel(s) : 2 channels
Channel positions : Front: L R
Sampling rate : 48.0 KHz
Bit depth : 16 bits
Compression mode : Lossy
Stream size : 131 MiB (9%)
Alignment : Split accross interleaves
Interleave, duration : 40 ms (1.00 video frame)
Interleave, preload duration : 500 ms
Title : Fre

Скриншот c названием фильма

Скриншоты

[teatrix.ru].t22261.torrent 
Торрент: Зарегистрирован [ 2016-03-20 12:39 ] · AE13B95695016D1C3CB9C0E1EF45E4B413E7E82B

Скачать .torrent

Скачать

15 KB

Статус: проверено
Скачан: 0 раз
Размер: 1.46 GB
terms.php



Быстрый ответ

Имя:

      
Для отправки сообщений необходимо включить JavaScript
Показать сообщения:    

Текущее время: 10-Дек 15:46

Часовой пояс: UTC + 3


Вы можете начинать темы
Вы можете отвечать на сообщения
Вы не можете редактировать свои сообщения
Вы не можете удалять свои сообщения
Вы не можете голосовать в опросах
Вы не можете прикреплять файлы к сообщениям
Вы можете скачивать файлы