(Baroque Opera) Gluck - Iphigenie en Tauride [excerpts] (Gorr, Gedda, Blanc, Quilico - Choeurs Rene Duclos & Orchestre de la Societe des Concerts du Conservatoire, Pretre) - 1998, APE (image+.cue) lossless


 

[Цитировать]

Christoph Willibald Gluck (1714-1787) - Iphigénie en Tauride (extraits)
Жанр: Baroque Opera
Страна-производитель диска: France
Год издания диска: 1998
Издатель (лейбл): EMI
Номер по каталогу: 7243 5 73090 2 8
Дата записи: 1964
Аудиокодек: APE
Тип рипа: image+.cue
Битрейт аудио: lossless
Продолжительность: 44'12
Источник: собственный рип
Наличие сканов в содержимом раздачи: да
Треклист:
1. Acte I: O toi qui prolongeas mes jours
2. Dieux! Le malheur en tous lieux ... De noirs pressentiments
3. Acte II: Quel silence effrayant
4. Dieux qui me poursuivez
5. Quel langage accablant ... Unis dès la plus tendre enfance
6. O malheureuse Iphigénie
7. Acte III: Je cède à vos désirs ... D'une image trop chérie
8. Je pourrais, du tyran
9. O moment trop heureux
10. Ah ! mon ami, j'implore ta pitié
11. Divinités des grandes ärnes
12. Acte IV: Non, eet affreux devoir ... J'implore et je trembie
13. Chaste fille de Latone
Исполнители:
Christoph Willibald Gluck (1714-1787) - Iphigénie en Tauride (extraits)
Drame Iyrique en 4 actes.
Livret de Guillard
lphigénie - Rita Gorr
Pylade - Nicolaï Gedda
Oreste - Ernest Blanc
Thoas - Louis Quilico
Choeurs René Duclos & Orchestre de la Société des Concerts du Conservatoire
Direction Georges Prêtre

Лог создания рипа

Exact Audio Copy V1.0 beta 6 from 9. April 2015
EAC extraction logfile from 30. August 2015, 21:55
(Gorr, Gedda, Blanc, Quilico - Choeur & Orchestre de la Société des Concerts du Conservatoire, Prêtre / Gluck - Iphigénie en Tauride [excerpts]
Used drive : HL-DT-STDVDRAM GH22NS50 Adapter: 1 ID: 0
Read mode : Secure
Utilize accurate stream : Yes
Defeat audio cache : Yes
Make use of C2 pointers : No
Read offset correction : 667
Overread into Lead-In and Lead-Out : No
Fill up missing offset samples with silence : Yes
Delete leading and trailing silent blocks : No
Null samples used in CRC calculations : Yes
Used interface : Native Win32 interface for Win NT & 2000
Used output format : Monkey's Audio Lossless Encoder
Selected bitrate : High Lossless Compression
Quality : High
Add ID3 tag : Yes
Command line compressor : C:\Program Files (x86)\Exact Audio Copy\MAC\MAC.exe
TOC of the extracted CD
Track | Start | Length | Start sector | End sector
---------------------------------------------------------
1 | 0:00.32 | 4:32.28 | 32 | 20459
2 | 4:32.60 | 3:53.35 | 20460 | 37969
3 | 8:26.20 | 2:54.42 | 37970 | 51061
4 | 11:20.62 | 1:56.03 | 51062 | 59764
5 | 13:16.65 | 4:21.45 | 59765 | 79384
6 | 17:38.35 | 4:05.50 | 79385 | 97809
7 | 21:44.10 | 4:12.30 | 97810 | 116739
8 | 25:56.40 | 3:57.20 | 116740 | 134534
9 | 29:53.60 | 3:50.40 | 134535 | 151824
10 | 33:44.25 | 2:25.45 | 151825 | 162744
11 | 36:09.70 | 1:53.02 | 162745 | 171221
12 | 38:02.72 | 4:12.20 | 171222 | 190141
13 | 42:15.17 | 1:57.30 | 190142 | 198946
Range status and errors
Selected range
Filename D:\EAC\Gluck - Iphigénie en Tauride [excerpts].wav
Peak level 97.9 %
Extraction speed 1.6 X
Range quality 100.0 %
Test CRC EB9A6735
Copy CRC EB9A6735
Copy OK
No errors occurred
AccurateRip summary
Track 1 accurately ripped (confidence 2) [F6E8BB9B] (AR v1)
Track 2 accurately ripped (confidence 2) [F3D25994] (AR v1)
Track 3 accurately ripped (confidence 2) [BE14ABBF] (AR v1)
Track 4 accurately ripped (confidence 2) [994AE161] (AR v1)
Track 5 accurately ripped (confidence 2) [6E22F83F] (AR v1)
Track 6 accurately ripped (confidence 2) [83A81B8E] (AR v1)
Track 7 accurately ripped (confidence 2) [E7CA5A1E] (AR v1)
Track 8 accurately ripped (confidence 2) [5B508926] (AR v1)
Track 9 accurately ripped (confidence 2) [B0867A37] (AR v1)
Track 10 accurately ripped (confidence 2) [A298280A] (AR v1)
Track 11 accurately ripped (confidence 2) [748A7BF0] (AR v1)
Track 12 accurately ripped (confidence 2) [3A9770ED] (AR v1)
Track 13 accurately ripped (confidence 2) [EFB724C1] (AR v1)
All tracks accurately ripped
End of status report
---- CUETools DB Plugin V2.1.6
[CTDB TOCID: ZH4RFxbYHilFJvux5MYFsnYCErE-] disk not present in database
Submit result: ZH4RFxbYHilFJvux5MYFsnYCErE- has been uploaded
==== Log checksum 7EC4D1F316634B96B3F7DA9EAF057FDE4B878641B62EDBC43FA9AF016718F156 ====

Содержание индексной карты (.CUE)

REM GENRE Opera
REM DATE 1961
REM DISCID B40A5C0D
REM COMMENT "ExactAudioCopy v1.0b6"
CATALOG 0000000000000
PERFORMER "(Gorr, Gedda, Blanc, Quilico - Choeur & Orchestre de la Société des Concerts ..."
TITLE "Gluck - Iphigénie en Tauride [excerpts]"
FILE "Gluck - Iphigénie en Tauride [excerpts].ape" WAVE
TRACK 01 AUDIO
TITLE "Acte I: O toi qui prolongeas mes jours"
PERFORMER "(Gorr, Gedda, Blanc, Quilico - Choeur & Orchestre de la Société des Concerts ..."
ISRC FRZ116101260
INDEX 00 00:00:00
INDEX 01 00:00:32
TRACK 02 AUDIO
TITLE "Dieux! Le malheur en tous lieux ... De noirs pressentiments"
PERFORMER "(Gorr, Gedda, Blanc, Quilico - Choeur & Orchestre de la Société des Concerts ..."
ISRC FRZ116101270
INDEX 00 04:28:70
INDEX 01 04:32:60
TRACK 03 AUDIO
TITLE "Acte II: Quel silence effrayant"
PERFORMER "(Gorr, Gedda, Blanc, Quilico - Choeur & Orchestre de la Société des Concerts ..."
ISRC FRZ116101280
INDEX 00 08:23:60
INDEX 01 08:26:20
TRACK 04 AUDIO
TITLE "Dieux qui me poursuivez"
PERFORMER "(Gorr, Gedda, Blanc, Quilico - Choeur & Orchestre de la Société des Concerts ..."
ISRC FRZ116101290
INDEX 01 11:20:62
TRACK 05 AUDIO
TITLE "Quel langage accablant ... Unis dès la plus tendre enfance"
PERFORMER "(Gorr, Gedda, Blanc, Quilico - Choeur & Orchestre de la Société des Concerts ..."
ISRC FRZ116101300
INDEX 00 13:13:30
INDEX 01 13:16:65
TRACK 06 AUDIO
TITLE "O malheureuse Iphigénie"
PERFORMER "(Gorr, Gedda, Blanc, Quilico - Choeur & Orchestre de la Société des Concerts ..."
ISRC FRZ116101310
INDEX 00 17:34:05
INDEX 01 17:38:35
TRACK 07 AUDIO
TITLE "Acte III: Je cède à vos désirs ... D'une image trop chérie"
PERFORMER "(Gorr, Gedda, Blanc, Quilico - Choeur & Orchestre de la Société des Concerts ..."
ISRC FRZ116101320
INDEX 00 21:39:40
INDEX 01 21:44:10
TRACK 08 AUDIO
TITLE "Je pourrais, du tyran"
PERFORMER "(Gorr, Gedda, Blanc, Quilico - Choeur & Orchestre de la Société des Concerts ..."
ISRC FRZ116101330
INDEX 00 25:52:62
INDEX 01 25:56:40
TRACK 09 AUDIO
TITLE "O moment trop heureux"
PERFORMER "(Gorr, Gedda, Blanc, Quilico - Choeur & Orchestre de la Société des Concerts ..."
ISRC FRZ116101340
INDEX 01 29:53:60
TRACK 10 AUDIO
TITLE "Ah ! mon ami, j'implore ta pitié"
PERFORMER "(Gorr, Gedda, Blanc, Quilico - Choeur & Orchestre de la Société des Concerts ..."
ISRC FRZ116101350
INDEX 00 33:41:05
INDEX 01 33:44:25
TRACK 11 AUDIO
TITLE "Divinités des grandes ärnes"
PERFORMER "(Gorr, Gedda, Blanc, Quilico - Choeur & Orchestre de la Société des Concerts ..."
ISRC FRZ116101360
INDEX 00 36:05:25
INDEX 01 36:09:70
TRACK 12 AUDIO
TITLE "Acte IV: Non, eet affreux devoir ... J'implore et je trembie"
PERFORMER "(Gorr, Gedda, Blanc, Quilico - Choeur & Orchestre de la Société des Concerts ..."
ISRC FRZ116101370
INDEX 00 37:59:12
INDEX 01 38:02:72
TRACK 13 AUDIO
TITLE "Chaste fille de Latone"
PERFORMER "(Gorr, Gedda, Blanc, Quilico - Choeur & Orchestre de la Société des Concerts ..."
ISRC FRZ116101380
INDEX 00 42:11:31
INDEX 01 42:15:17



Показать сообщения:    

Текущее время: 24-Янв 12:13

Часовой пояс: UTC + 3


Вы не можете начинать темы
Вы не можете отвечать на сообщения
Вы не можете редактировать свои сообщения
Вы не можете удалять свои сообщения
Вы не можете голосовать в опросах
Вы не можете прикреплять файлы к сообщениям
Вы не можете скачивать файлы