(Chamber Music) L. de Narvaez, A. de Cabezon, D. Ortiz, J. del Enzina - Bella de vos som amoros: La Musica en la Corte de los Reyes Catolicos y Carlos I / Capella Virelai, dir. Jordi Reguant - 1999, WavPack (image+.cue) lossless


 

[Цитировать]

Bella de vos som amorós
La Música en la Corte de los Reyes Católicos y Carlos I
Capella Virelai
Jordi Reguant
Жанр: Chamber Music
Страна-производитель диска: Spain
Год издания диска: 1999
Издатель (лейбл): La mà de guido
Номер по каталогу: LMG 2035
Дата записи: 1999
Аудиокодек: WavPack
Тип рипа: image+.cue
Битрейт аудио: lossless
Продолжительность: 61:44
Источник: собственный рип
Наличие сканов в содержимом раздачи: да

Треклист

Cancionero de Palacio (s.XV-XVI)
01. L'amor, dona, ch'io te porto (anónimo) [2:55]
02. Pase el agoa, ma Julieta (anónimo) [1:43]
03. Dindirin, dindirin (anónimo) [1:16]
04. Dale, si le das (anónimo) [3:24]
05. So ell enzina, enzina (anónimo) [2:10]
06. Rodrigo Martines (anónimo) [2:05]
Libro de Cifra Nueva de Luys Venegas de Henestrosa (pub. 1557)
07. Tiento (Pere Alberch Vila) [2:39]
08. Paseábase el Rey Moro (Francisco Fernández Palero) [1:15]
09. Paseábase el Rey Moro (Luys de Narváez) [0:59]
10. Pavana con su glosa (Antonio de Cabezón) [3:17]
Cançoner del Duc de Calabria (pub. 1556)
11. Bella de vos som amorós (Mateu Fletxa, poema: Pere Serafi) [4:35]
12. Soleta yo so açi (Cárceres) [2:43]
Cancionero musical de la Casa de Medinaceli (s.XVI)
13. Tu dorado cabello (Francisco Guerrero) [3:26]
14. Pues que me tienes, Miguel (Ortega) [2:16]
15. Dí, perra mora (anónimo) [1:51]
Recercadas del Tratado de Glosas (Diego Ortiz, 1553)
16. Recercada Primera sobre el madrigal O felici occhi miei [2:30]
17. Recercada Segunda sobre el madrigal O felici occhi miei [2:26]
18. Recercada Ottava sobre La folia [1:47]
19. Recercada Segunda sobre el Passamento moderno [1:28]
Cancionero de Palacio (s.XV-XVI)
20. Ya soi desposado (Juan del Enzina) [1:55]
21. Más vale trocar (Juan del Enzina) [2:26]
22. Pues bien para ésta (Garcimuñós) [3:22]
23. O voy (Román) [2:51]
24. Si abrá en este baldrés (Juan del Enzina) [1:38]
25. Oy comamos y bebamos (Juan del Enzina) [2:31]
Cancionero de la Colombina (s.XV-XVI)
26. Propiñán de melyor (anónimo) [2:15]

Исполнители

CAPELLA VIRELAI
Alexandrina Polo: veu
Margarida Lladó: veu
Josep Benet: veu
Jordi Ricart: veu
Jordi Argelaga: flautes, xirimia
Jordi Camellas: viola de gamba
Ferran Quiroga: vihuela
Jaume Bragulat: percussió
Jordi Reguant: clavecí, orguenet y direcció

Instruments

Vihuela en sol: Lourdes Uncilla (San Lorenzo de El Escorial) segons anònim del s.XVI
Viola da gamba: Guy Derat (París 1979) segons Barak Norman (finals del s.XVI)
Flautes de bec: Kanji & Sorel (Ganassi), Yoav Ran (Ganassi)
Xirimia en fa: John Hanchet
Clavicèmbal: Fred Bettenhaussen (Haarlem 1990), segons model italià del s.XVI-XVII

log EAC

Exact Audio Copy V0.99 prebeta 5 from 4. May 2009
Отчёт EAC об извлечении, выполненном 27. августа 2015, 15:50
Capella Virelai / Bella de vos som amoros
Дисковод: PIONEER DVD-RW DVR-219L Adapter: 1 ID: 1
Режим чтения : Достоверность
Использование точного потока : Да
Отключение кэша аудио : Да
Использование указателей C2 : Нет
Коррекция смещения при чтении : 6
Способность читать области Lead-in и Lead-out : Нет
Заполнение пропущенных сэмплов тишиной : Да
Удаление блоков с тишиной в начале и конце : Нет
При вычислениях CRC использовались нулевые сэмплы : Да
Интерфейс : Встроенный Win32-интерфейс для Win NT/2000
Выходной формат : Внутренние WAV-операции
Формат сэмплов : 44.100 Гц; 16 бит; стерео
TOC извлечённого CD
Трек | Старт | Длительность | Начальный сектор | Конечный сектор
---------------------------------------------------------------------
1 | 0:00.00 | 2:55.19 | 0 | 13143
2 | 2:55.19 | 1:43.00 | 13144 | 20868
3 | 4:38.19 | 1:15.55 | 20869 | 26548
4 | 5:53.74 | 3:24.15 | 26549 | 41863
5 | 9:18.14 | 2:10.32 | 41864 | 51645
6 | 11:28.46 | 2:05.06 | 51646 | 61026
7 | 13:33.52 | 2:39.02 | 61027 | 72953
8 | 16:12.54 | 1:14.52 | 72954 | 78555
9 | 17:27.31 | 0:58.62 | 78556 | 82967
10 | 18:26.18 | 3:17.03 | 82968 | 97745
11 | 21:43.21 | 4:34.67 | 97746 | 118362
12 | 26:18.13 | 2:42.53 | 118363 | 130565
13 | 29:00.66 | 3:26.16 | 130566 | 146031
14 | 32:27.07 | 2:15.40 | 146032 | 156196
15 | 34:42.47 | 1:51.02 | 156197 | 164523
16 | 36:33.49 | 2:29.54 | 164524 | 175752
17 | 39:03.28 | 2:25.57 | 175753 | 186684
18 | 41:29.10 | 1:47.32 | 186685 | 194741
19 | 43:16.42 | 1:28.11 | 194742 | 201352
20 | 44:44.53 | 1:55.34 | 201353 | 210011
21 | 46:40.12 | 2:26.20 | 210012 | 220981
22 | 49:06.32 | 3:22.34 | 220982 | 236165
23 | 52:28.66 | 2:51.01 | 236166 | 248991
24 | 55:19.67 | 1:37.72 | 248992 | 256338
25 | 56:57.64 | 2:30.49 | 256339 | 267637
26 | 59:28.38 | 2:15.34 | 267638 | 277796
Характеристики диапазона извлечения и сообщения об ошибках
Выбранный диапазон
Имя файла C:\Documents and Settings\Agni\Мои документы\EAC\Capella Virelai - Bella de vos som amoros.wav
Пиковый уровень 98.3 %
Качество диапазона 100.0 %
CRC теста 28ACE37C
CRC копии 28ACE37C
Копирование... OK
Ошибок не произошло
AccurateRip: сводка
Трек 1 нет в базе данных
Трек 2 нет в базе данных
Трек 3 нет в базе данных
Трек 4 нет в базе данных
Трек 5 нет в базе данных
Трек 6 нет в базе данных
Трек 7 нет в базе данных
Трек 8 нет в базе данных
Трек 9 нет в базе данных
Трек 10 нет в базе данных
Трек 11 нет в базе данных
Трек 12 нет в базе данных
Трек 13 нет в базе данных
Трек 14 нет в базе данных
Трек 15 нет в базе данных
Трек 16 нет в базе данных
Трек 17 нет в базе данных
Трек 18 нет в базе данных
Трек 19 нет в базе данных
Трек 20 нет в базе данных
Трек 21 нет в базе данных
Трек 22 нет в базе данных
Трек 23 нет в базе данных
Трек 24 нет в базе данных
Трек 25 нет в базе данных
Трек 26 нет в базе данных
Ни одного трека нет в базе AccurateRip
Конец отчёта



Показать сообщения:    

Текущее время: 05-Дек 01:26

Часовой пояс: UTC + 3


Вы не можете начинать темы
Вы не можете отвечать на сообщения
Вы не можете редактировать свои сообщения
Вы не можете удалять свои сообщения
Вы не можете голосовать в опросах
Вы не можете прикреплять файлы к сообщениям
Вы не можете скачивать файлы