(Chamber Music) M. Flecha, B. Carceres, J. del Enzina, Narvaez-Valente - La epoca dorada del villancico: Cancionero musical del Duque de Calabria / Capilla Virelai, dir. Jordi Reguant - 2001, WavPack (image+.cue) lossless


 

[Цитировать]

La época dorada del villancico
Cancionero musical del Duque de Calabria
Capilla Virelai
Jordi Reguant
Жанр: Chamber Music
Страна-производитель диска: Spain
Год издания диска: 2001
Издатель (лейбл): Geaster
Номер по каталогу: Arsis 4178
Дата записи: 2001
Аудиокодек: WavPack
Тип рипа: image+.cue
Битрейт аудио: lossless
Продолжительность: 67:24
Источник: собственный рип
Наличие сканов в содержимом раздачи: да

Треклист

01. Rey a quien reyes. Música de autor anónimo; poesía de Juan Fernández de Heredia [1:24]
02. Desposastes. Anónimo [5:14]
03. Vella de vos. Música de Mateo Flecha y poesía de Pere Serafi [6:13]
04. Tan mala noche me distes serrana. Poesía de Juan Fernández de Heredia [3:06]
05. Soy Serranica. Anónimo [1:52]
06. Un niño nos es nacido. Poesía de Juan Fernández de Heredia [3:05]
07. Dime robadora. (instr.) Anónimo [1:59]
08. Si te vas. Anónimo [2:49]
09. Alça la niña. Anónimo [1:54]
10. Falalanlera. Bartomeu Càrceres [2:00]
11. Si la noche se hace oscura. Música: Pisador & autor anónimo; poesía de Juan Fernández de Heredia? [6:46]
12. Ah Pelayo. Música de Juan Aldomar; poesía de autor anónimo [5:12]
13. Soleta i verge. Bartomeu Càrceres [3:22]
14. Vos Virgen. (instr.) [2:34]
15. Gózate Virgen. Anónimo [1:44]
16. Ojos garços. Juan del Enzina? [4:22]
17. Yo me soy la morenica. Anónimo [1:31]
18. Vi los barcos. Anónimo [2:59]
19. Vésame y abraçame & las vacas. Poesía de autor anónimo; música de autor anónimo & Narváez-Valente [3:43]
20. No la devemos dormir. Poesía de Fray Ambrosio Montesino [2:03]
21. Que farem del pobre Joan. Música y poesía de Mateo Flecha [3:32]

Исполнители

CAPILLA VIRELAI
Alexandrina Polo: soprano
Margarida Lladó: mezzo-soprano
Lluís Arguijo: tenor
Jordi Ricart: barítono
Jordi Argelaga: flautas, chirimía, cromorno
Jordi Comellas: viola de gamba
Ferran Quiroga: vihuela, tiorba
Pilar Subirà: percusión
Lluís Solé: cornetto
Carles Cristóbal: bajón
Jordi Giménez: sacabuche
Jordi Reguant: clavecín, organetto y dirección

log EAC

Exact Audio Copy V0.99 prebeta 5 from 4. May 2009
Отчёт EAC об извлечении, выполненном 27. августа 2015, 17:44
Capilla Virelai / La epoca dorada del villancico
Дисковод: PIONEER DVD-RW DVR-219L Adapter: 1 ID: 1
Режим чтения : Достоверность
Использование точного потока : Да
Отключение кэша аудио : Да
Использование указателей C2 : Нет
Коррекция смещения при чтении : 6
Способность читать области Lead-in и Lead-out : Нет
Заполнение пропущенных сэмплов тишиной : Да
Удаление блоков с тишиной в начале и конце : Нет
При вычислениях CRC использовались нулевые сэмплы : Да
Интерфейс : Встроенный Win32-интерфейс для Win NT/2000
Выходной формат : Внутренние WAV-операции
Формат сэмплов : 44.100 Гц; 16 бит; стерео
TOC извлечённого CD
Трек | Старт | Длительность | Начальный сектор | Конечный сектор
---------------------------------------------------------------------
1 | 0:00.00 | 1:23.41 | 0 | 6265
2 | 1:23.41 | 5:13.68 | 6266 | 29808
3 | 6:37.34 | 6:12.43 | 29809 | 57751
4 | 12:50.02 | 3:05.49 | 57752 | 71675
5 | 15:55.51 | 1:52.17 | 71676 | 80092
6 | 17:47.68 | 3:04.52 | 80093 | 93944
7 | 20:52.45 | 1:58.69 | 93945 | 102863
8 | 22:51.39 | 2:49.05 | 102864 | 115543
9 | 25:40.44 | 1:54.22 | 115544 | 124115
10 | 27:34.66 | 2:00.33 | 124116 | 133148
11 | 29:35.24 | 6:45.42 | 133149 | 163565
12 | 36:20.66 | 5:11.73 | 163566 | 186963
13 | 41:32.64 | 3:22.31 | 186964 | 202144
14 | 44:55.20 | 2:34.00 | 202145 | 213694
15 | 47:29.20 | 1:44.14 | 213695 | 221508
16 | 49:13.34 | 4:21.72 | 221509 | 241155
17 | 53:35.31 | 1:31.27 | 241156 | 248007
18 | 55:06.58 | 2:59.26 | 248008 | 261458
19 | 58:06.09 | 3:42.57 | 261459 | 278165
20 | 61:48.66 | 2:03.11 | 278166 | 287401
21 | 63:52.02 | 3:32.17 | 287402 | 303318
Характеристики диапазона извлечения и сообщения об ошибках
Выбранный диапазон
Имя файла C:\Documents and Settings\Agni\Мои документы\EAC\Capilla Virelai - La epoca dorada del villancico.wav
Пиковый уровень 96.8 %
Качество диапазона 100.0 %
CRC теста 844261D9
CRC копии 844261D9
Копирование... OK
Ошибок не произошло
AccurateRip: сводка
Трек 1 нет в базе данных
Трек 2 нет в базе данных
Трек 3 нет в базе данных
Трек 4 нет в базе данных
Трек 5 нет в базе данных
Трек 6 нет в базе данных
Трек 7 нет в базе данных
Трек 8 нет в базе данных
Трек 9 нет в базе данных
Трек 10 нет в базе данных
Трек 11 нет в базе данных
Трек 12 нет в базе данных
Трек 13 нет в базе данных
Трек 14 нет в базе данных
Трек 15 нет в базе данных
Трек 16 нет в базе данных
Трек 17 нет в базе данных
Трек 18 нет в базе данных
Трек 19 нет в базе данных
Трек 20 нет в базе данных
Трек 21 нет в базе данных
Ни одного трека нет в базе AccurateRip
Конец отчёта



Показать сообщения:    

Текущее время: 08-Дек 12:56

Часовой пояс: UTC + 3


Вы не можете начинать темы
Вы не можете отвечать на сообщения
Вы не можете редактировать свои сообщения
Вы не можете удалять свои сообщения
Вы не можете голосовать в опросах
Вы не можете прикреплять файлы к сообщениям
Вы не можете скачивать файлы