(Medieval, Sacree, Chant, A Cappella) The Story of Job in Gregorian Chant and Polyphony / Schola Hungarica, cond. Laszlo Dobszay & Janka Szendrei - 2004, WavPack (image+.cue) lossless


Статистика раздачи [Обновить пиров]
Размер:  291 MB   |    Зарегистрирован:  8 месяцев 15 дней   |    Скачан:  2 раза

Полного источника не было: 6 дней

 
   
 
 
 

[Цитировать]

The Story of Job
in Gregorian Chant and Polyphony
Schola Hungarica
Conducted by
László Dobszay • Janka Szendrei
Жанр: Medieval, Sacrée, Chant, A Cappella
Страна-производитель диска: Austria
Год издания диска: 2004
Издатель (лейбл): Hungaroton
Номер по каталогу: HCD 32239
Дата записи: 22-28 June 2003
Аудиокодек: WavPack
Тип рипа: image+.cue
Битрейт аудио: lossless
Продолжительность: 62:32
Источник: собственный рип
Наличие сканов в содержимом раздачи: да

Треклист

01. Cum audisset Job. Antiphon [1:07]
02. Vir erat in terra Hus. Old Roman Offertory [9:46]
I. Nocturnus
03. Quantas habeo. Antiphon with Psalm [2:05]
04. Factum est autem. Reading (2, 2-3) [1:24]
05. Si bona suscepimus. Responsory [2:25]
06. Cui respondens Satan. Reading (2, 3-6) [0:52]
07. Antquam comedam. Responsory [3:09]
08. Egressus igitur Satan. Reading (2, 7-8) [0:35]
09. Utinam appenderentur. Responsory [1:42]
10. T.L. Vittoria (†1611): Peccantem me quotidie. Responsory [4:19]
II. Nocturnus
11. Cives mei vermes sunt. Antiphon with Psalm [2:27]
12. Dixit autem illi uxor sua. Reading (2, 9-10) [0:52]
13. Quare detraxisti. Responsory [2:06]
14. Respondens autem Eliphas. Reading (22, 1-5) [1:08]
15. Induta est caro mea. Responsory [2:12]
16. Aquam lasso non dedisti. Reading (22, 7-8, 10-12) [1:10]
17. Versa est in luctum. Responsory [2:16]
18. T.L. Vittoria: Versa est in luctum. Motetum [3:18]
III. Nocturnus
19. Auditu auris audivi te. Antiphon with Psalm [2:23]
20. Dixit Dominus ad Eliphaz. Reading (42, 7-8) [0:55]
21. Numquid Dominus supplantat. Responsory [2:07]
22. Faciem ejus suscipiam. Reading (42, 8-9) [0:49]
23. Nocte os meum perforatur. Responsory [2:05]
24. Dominus quoque conversus est. Reading (42, 10-11) [1:13]
25. Paucitas dierum meorum. Responsory [3:12]
26. T.L. Vittoria: Tædet animam meam. Lectio [3:40]
27. Dominus autem benedixit. Reading (42, 12) [0:40]
28. R. Parsons (†1570): Credo, quod redemptor meus. Responsory [2:37]

Исполнители

SCHOLA HUNGARICA
Conducted by
Janka Szendrei [1], [3]-[5], [8], [9], [11]-[13], [16], [17], [19]-[21], [24], [25]
László Dobszay [2], [6], [7], [10], [14], [15], [18], [22], [23], [26]-[28]
Soloists:
János Bali [10], [26]
Barnabás Hegyi [26]
Csaba Kocsis [8], [10], [16], [26], [28]
György Merczel [6], [14], [22]
Zoltán Mizsei [8], [16], [24], [26]
Orsolya Rédly [10]
Ervin Rieder [4], [12], [20]
András Soós [27]

log EAC

Exact Audio Copy V0.99 prebeta 5 from 4. May 2009
Отчёт EAC об извлечении, выполненном 25. мая 2013, 16:10
Schola Hungarica / The Story of Job
Дисковод: PIONEER DVD-RW DVR-219L Adapter: 3 ID: 0
Режим чтения : Достоверность
Использование точного потока : Да
Отключение кэша аудио : Да
Использование указателей C2 : Нет
Коррекция смещения при чтении : 6
Способность читать области Lead-in и Lead-out : Нет
Заполнение пропущенных сэмплов тишиной : Да
Удаление блоков с тишиной в начале и конце : Нет
При вычислениях CRC использовались нулевые сэмплы : Да
Интерфейс : Встроенный Win32-интерфейс для Win NT/2000
Выходной формат : Внутренние WAV-операции
Формат сэмплов : 44.100 Гц; 16 бит; стерео
TOC извлечённого CD
Трек | Старт | Длительность | Начальный сектор | Конечный сектор
---------------------------------------------------------------------
1 | 0:00.00 | 1:07.31 | 0 | 5055
2 | 1:07.31 | 9:46.22 | 5056 | 49027
3 | 10:53.53 | 2:04.55 | 49028 | 58382
4 | 12:58.33 | 1:23.43 | 58383 | 64650
5 | 14:22.01 | 2:24.39 | 64651 | 75489
6 | 16:46.40 | 0:52.09 | 75490 | 79398
7 | 17:38.49 | 3:09.07 | 79399 | 93580
8 | 20:47.56 | 0:34.45 | 93581 | 96175
9 | 21:22.26 | 1:41.45 | 96176 | 103795
10 | 23:03.71 | 4:19.29 | 103796 | 123249
11 | 27:23.25 | 2:26.43 | 123250 | 134242
12 | 29:49.68 | 0:51.47 | 134243 | 138114
13 | 30:41.40 | 2:05.42 | 138115 | 147531
14 | 32:47.07 | 1:07.65 | 147532 | 152621
15 | 33:54.72 | 2:12.30 | 152622 | 162551
16 | 36:07.27 | 1:09.53 | 162552 | 167779
17 | 37:17.05 | 2:15.56 | 167780 | 177960
18 | 39:32.61 | 3:18.05 | 177961 | 192815
19 | 42:50.66 | 2:22.63 | 192816 | 203528
20 | 45:13.54 | 0:55.13 | 203529 | 207666
21 | 46:08.67 | 2:07.14 | 207667 | 217205
22 | 48:16.06 | 0:48.69 | 217206 | 220874
23 | 49:05.00 | 2:05.30 | 220875 | 230279
24 | 51:10.30 | 1:12.40 | 230280 | 235719
25 | 52:22.70 | 3:11.50 | 235720 | 250094
26 | 55:34.45 | 3:40.29 | 250095 | 266623
27 | 59:14.74 | 0:40.10 | 266624 | 269633
28 | 59:55.09 | 2:37.28 | 269634 | 281436
Характеристики диапазона извлечения и сообщения об ошибках
Выбранный диапазон
Имя файла C:\Documents and Settings\agni\Мои документы\EAC\Schola Hungarica - The Story of Job.wav
Пиковый уровень 88.1 %
Качество диапазона 100.0 %
CRC теста DA173831
CRC копии DA173831
Копирование... OK
Ошибок не произошло
AccurateRip: сводка
Трек 1 нет в базе данных
Трек 2 нет в базе данных
Трек 3 нет в базе данных
Трек 4 нет в базе данных
Трек 5 нет в базе данных
Трек 6 нет в базе данных
Трек 7 нет в базе данных
Трек 8 нет в базе данных
Трек 9 нет в базе данных
Трек 10 нет в базе данных
Трек 11 нет в базе данных
Трек 12 нет в базе данных
Трек 13 нет в базе данных
Трек 14 нет в базе данных
Трек 15 нет в базе данных
Трек 16 нет в базе данных
Трек 17 нет в базе данных
Трек 18 нет в базе данных
Трек 19 нет в базе данных
Трек 20 нет в базе данных
Трек 21 нет в базе данных
Трек 22 нет в базе данных
Трек 23 нет в базе данных
Трек 24 нет в базе данных
Трек 25 нет в базе данных
Трек 26 нет в базе данных
Трек 27 нет в базе данных
Трек 28 нет в базе данных
Ни одного трека нет в базе AccurateRip
Конец отчёта
[teatrix.ru].t22267.torrent 
Торрент: Зарегистрирован [ 2016-03-20 12:39 ] · 3CC8609602F96AFF495929745D22E745CEF9D13A

Скачать .torrent

Скачать

25 KB

Статус: проверено
Скачан: 2 раз
Размер: 291 MB
terms.php



Быстрый ответ

Имя:

      
Для отправки сообщений необходимо включить JavaScript
Показать сообщения:    

Текущее время: 05-Дек 03:30

Часовой пояс: UTC + 3


Вы можете начинать темы
Вы можете отвечать на сообщения
Вы не можете редактировать свои сообщения
Вы не можете удалять свои сообщения
Вы не можете голосовать в опросах
Вы не можете прикреплять файлы к сообщениям
Вы можете скачивать файлы