(Medieval, Sacree, Chant, A Cappella) Gregorian Chants in Hungarian: Advent • Christmas • Epiphany • Holy Week • Easter • Pentecost / Schola Hungarica, cond. Laszlo Dobszay & Janka Szendrei - 2004, WavPack (image+.cue) lossless


Статистика раздачи [Обновить пиров]
Размер:  305 MB   |    Зарегистрирован:  8 месяцев 15 дней   |    Скачан:  2 раза

Полного источника не было: 5 дней

 
   
 
 
 

[Цитировать]

Gregorian Chants in Hungarian
Advent • Christmas • Epiphany • Holy Week • Easter • Pentecost
Schola Hungarica
Conducted by
László Dobszay • Janka Szendrei
Жанр: Medieval, Sacrée, Chant, A Cappella
Страна-производитель диска: Hungary
Год издания диска: 2004
Издатель (лейбл): Hungaroton
Номер по каталогу: HCD 32157
Дата записи: 22-28 June 2003
Аудиокодек: WavPack
Тип рипа: image+.cue
Битрейт аудио: lossless
Продолжительность: 63:49
Источник: собственный рип
Наличие сканов в содержимом раздачи: да

Треклист

Advent
01. Hymn: Conditor alme siderum [1:37]
02. Alleluia: Rex noster [2:30]
03. Communion: Jerusalem surge [0:51]
04. Epistel: Gaudete in Domino [1:09]
05. Alleluia: Excita potentiam [1:30]
06. Communion: Dicite: pusillanimes [0:48]
Christmas
07. Invitatory: Christus natus est [3:01]
08. Antiphon and Psalm: Dominus dixit ad me [1:50]
09. Two part Reading: Populus qui ambulabat [2:36]
10. Responsory with four-part Verse: Verbum caro factum est [3:22]
11. Great Antiphon: Hodie Christus natus est [1:07]
Epiphany
12. Introit: Ecce advenit dominator [2:04]
13. Kyrie: Uram Isten, ki e napon [1:47]
14. Gloria: Gloria in excelsis Deo [2:45]
15. Sequence: Grates nunc omnes reddamus [0:57]
Holy Week, Easter, Pentecost
16. Lamentáció: Ego vir videns [5:09]
17. Processional Antiphon: Dum fabricator mundi [4:22]
18. Responsory: Dum transisset Sabbatum [2:07]
19. Hymn: Ad cenam Agni providi [1:49]
20. Antiphon: Alleluia (four part) [0:35]
21. Introit: Resurrexi [3:02]
22. Gradual: Hæc dies [4:29]
23. Sequence: Victimæ paschali [1:43]
24. Offertory: Terra tremuit [2:57]
25. Alleluia: Veni Sancte Spiritus [1:53]
26. Hymn about St. Stephen King: Gaude mater Hungaria [3:32]
27. Sequence: Cantemus cuncti [4:16]

Исполнители

SCHOLA HUNGARICA
Conducted by
László Dobszay [1], [7], [8], [10], [13], [14], [15], [19], [20], [22], [24], [26]
Janka Szendrei [2], [3], [5], [6], [11], [12], [17], [18], [21], [23], [25], [27]
Soloists:
András Soós [4], [10], Zoltán Mizsei [10], [16], Csaba Kocsis [7], Péter Patay [10]

log EAC

Exact Audio Copy V0.99 prebeta 5 from 4. May 2009
Отчёт EAC об извлечении, выполненном 25. мая 2013, 14:07
Schola Hungarica / Gregorian Chants in Hungarian
Дисковод: PIONEER DVD-RW DVR-219L Adapter: 3 ID: 0
Режим чтения : Достоверность
Использование точного потока : Да
Отключение кэша аудио : Да
Использование указателей C2 : Нет
Коррекция смещения при чтении : 6
Способность читать области Lead-in и Lead-out : Нет
Заполнение пропущенных сэмплов тишиной : Да
Удаление блоков с тишиной в начале и конце : Нет
При вычислениях CRC использовались нулевые сэмплы : Да
Интерфейс : Встроенный Win32-интерфейс для Win NT/2000
Выходной формат : Внутренние WAV-операции
Формат сэмплов : 44.100 Гц; 16 бит; стерео
TOC извлечённого CD
Трек | Старт | Длительность | Начальный сектор | Конечный сектор
---------------------------------------------------------------------
1 | 0:00.00 | 1:37.33 | 0 | 7307
2 | 1:37.33 | 2:30.33 | 7308 | 18590
3 | 4:07.66 | 0:51.03 | 18591 | 22418
4 | 4:58.69 | 1:08.51 | 22419 | 27569
5 | 6:07.45 | 1:30.07 | 27570 | 34326
6 | 7:37.52 | 0:48.30 | 34327 | 37956
7 | 8:26.07 | 3:00.59 | 37957 | 51515
8 | 11:26.66 | 1:50.05 | 51516 | 59770
9 | 13:16.71 | 2:36.34 | 59771 | 71504
10 | 15:53.30 | 3:21.63 | 71505 | 86642
11 | 19:15.18 | 1:07.25 | 86643 | 91692
12 | 20:22.43 | 2:04.26 | 91693 | 101018
13 | 22:26.69 | 1:47.05 | 101019 | 109048
14 | 24:13.74 | 2:44.65 | 109049 | 121413
15 | 26:58.64 | 0:56.60 | 121414 | 125673
16 | 27:55.49 | 5:08.39 | 125674 | 148812
17 | 33:04.13 | 4:21.45 | 148813 | 168432
18 | 37:25.58 | 2:07.17 | 168433 | 177974
19 | 39:33.00 | 1:49.18 | 177975 | 186167
20 | 41:22.18 | 0:35.06 | 186168 | 188798
21 | 41:57.24 | 3:02.09 | 188799 | 202457
22 | 44:59.33 | 4:28.41 | 202458 | 222598
23 | 49:27.74 | 1:43.32 | 222599 | 230355
24 | 51:11.31 | 2:56.60 | 230356 | 243615
25 | 54:08.16 | 1:52.66 | 243616 | 252081
26 | 56:01.07 | 3:32.25 | 252082 | 268006
27 | 59:33.32 | 4:15.54 | 268007 | 287185
Характеристики диапазона извлечения и сообщения об ошибках
Выбранный диапазон
Имя файла C:\Documents and Settings\agni\Мои документы\EAC\Schola Hungarica - Gregorian Chants in Hungarian.wav
Пиковый уровень 96.8 %
Качество диапазона 100.0 %
CRC теста 6D7707C3
CRC копии 6D7707C3
Копирование... OK
Ошибок не произошло
AccurateRip: сводка
Трек 1 нет в базе данных
Трек 2 нет в базе данных
Трек 3 нет в базе данных
Трек 4 нет в базе данных
Трек 5 нет в базе данных
Трек 6 нет в базе данных
Трек 7 нет в базе данных
Трек 8 нет в базе данных
Трек 9 нет в базе данных
Трек 10 нет в базе данных
Трек 11 нет в базе данных
Трек 12 нет в базе данных
Трек 13 нет в базе данных
Трек 14 нет в базе данных
Трек 15 нет в базе данных
Трек 16 нет в базе данных
Трек 17 нет в базе данных
Трек 18 нет в базе данных
Трек 19 нет в базе данных
Трек 20 нет в базе данных
Трек 21 нет в базе данных
Трек 22 нет в базе данных
Трек 23 нет в базе данных
Трек 24 нет в базе данных
Трек 25 нет в базе данных
Трек 26 нет в базе данных
Трек 27 нет в базе данных
Ни одного трека нет в базе AccurateRip
Конец отчёта
[teatrix.ru].t22268.torrent 
Торрент: Зарегистрирован [ 2016-03-20 12:39 ] · 39CD8A4EA932AAA52AE2FA315C20A1F7A3A2C582

Скачать .torrent

Скачать

26 KB

Статус: проверено
Скачан: 2 раз
Размер: 305 MB
terms.php



Быстрый ответ

Имя:

      
Для отправки сообщений необходимо включить JavaScript
Показать сообщения:    

Текущее время: 04-Дек 17:15

Часовой пояс: UTC + 3


Вы можете начинать темы
Вы можете отвечать на сообщения
Вы не можете редактировать свои сообщения
Вы не можете удалять свои сообщения
Вы не можете голосовать в опросах
Вы не можете прикреплять файлы к сообщениям
Вы можете скачивать файлы