(Medieval, Sacree, Chant, A Cappella) Magyar Gregorianum 4: Gregorian Chants from Medieval Hungary - Easter / Schola Hungarica, cond. Laszlo Dobszay & Janka Szendrei - 2003, WavPack (image+.cue) lossless


Статистика раздачи [Обновить пиров]
Размер:  202 MB   |    Зарегистрирован:  8 месяцев 20 дней   |    Скачан:  2 раза

Полного источника не было: 10 дней

 
   
 
 
 

[Цитировать]

Magyar Gregoriánum 4
Gregorian Chants from Medieval Hungary
Easter
Schola Hungarica
Conducted by
László Dobszay • Janka Szendrei
Жанр: Medieval, Sacrée, Chant, A Cappella
Страна-производитель диска: Hungary
Год издания диска: 2003
Издатель (лейбл): Hungaroton
Номер по каталогу: HCD 12050
Дата записи: 1978
Аудиокодек: WavPack
Тип рипа: image+.cue
Битрейт аудио: lossless
Продолжительность: 45:41
Источник: собственный рип
Наличие сканов в содержимом раздачи: да

Треклист

01. Inventor rutili - Hymn [3:48]
02. Iam domnus optatas - Trope [1:53]
03. Dum transisset sabbatum - Responsory [3:01]
04. Quis revolvet - Easter play [4:26]
05. Cum Rex gloriæ - Antiphon [3:16]
06. Triumphat Dei Filius - Trope [0:49]
07. Surrexit Dominus - Oratio: Deus, qui paschale [0:55]
08. Sedit angelus - Antiphon [5:08]
09. Resurrexi - Introit [3:33]
10. Kyrie paschale - three-part [2:06]
11. Hæc dies - Graduale [2:21]
12. Alleluja. Pascha nostrum [3:02]
13. Mundi renovatio - Sequence [2:40]
14. Terra tremuit - Offertory [3:04]
15. Pascha nostrum - Communion [1:22]
16. Surrexit Christus - Benedicamus trope, two-part cantio [1:46]
17. Regina cæli - Antiphon of the Blessed Virgin Mary with trope [2:31]

Исполнители

SCHOLA HUNGARICA
Conducted by
László Dobszay [1], [2], [4], [6], [10], [11], [14], [15]
Janka Szendrei [3], [5], [7]-[9], [12], [13], [16], [17]

log EAC

Exact Audio Copy V0.99 prebeta 5 from 4. May 2009
Отчёт EAC об извлечении, выполненном 27. мая 2013, 20:08
Schola Hungarica / Magyar Gregorianum 4
Дисковод: PIONEER DVD-RW DVR-219L Adapter: 3 ID: 0
Режим чтения : Достоверность
Использование точного потока : Да
Отключение кэша аудио : Да
Использование указателей C2 : Нет
Коррекция смещения при чтении : 6
Способность читать области Lead-in и Lead-out : Нет
Заполнение пропущенных сэмплов тишиной : Да
Удаление блоков с тишиной в начале и конце : Нет
При вычислениях CRC использовались нулевые сэмплы : Да
Интерфейс : Встроенный Win32-интерфейс для Win NT/2000
Выходной формат : Внутренние WAV-операции
Формат сэмплов : 44.100 Гц; 16 бит; стерео
TOC извлечённого CD
Трек | Старт | Длительность | Начальный сектор | Конечный сектор
---------------------------------------------------------------------
1 | 0:00.00 | 3:47.55 | 0 | 17079
2 | 3:47.55 | 1:53.22 | 17080 | 25576
3 | 5:41.02 | 3:01.25 | 25577 | 39176
4 | 8:42.27 | 4:25.65 | 39177 | 59116
5 | 13:08.17 | 3:16.13 | 59117 | 73829
6 | 16:24.30 | 0:48.50 | 73830 | 77479
7 | 17:13.05 | 0:55.07 | 77480 | 81611
8 | 18:08.12 | 5:07.73 | 81612 | 104709
9 | 23:16.10 | 3:33.15 | 104710 | 120699
10 | 26:49.25 | 2:05.70 | 120700 | 130144
11 | 28:55.20 | 2:20.57 | 130145 | 140701
12 | 31:16.02 | 3:02.00 | 140702 | 154351
13 | 34:18.02 | 2:40.18 | 154352 | 166369
14 | 36:58.20 | 3:04.30 | 166370 | 180199
15 | 40:02.50 | 1:21.62 | 180200 | 186336
16 | 41:24.37 | 1:45.68 | 186337 | 194279
17 | 43:10.30 | 2:30.42 | 194280 | 205571
Характеристики диапазона извлечения и сообщения об ошибках
Выбранный диапазон
Имя файла C:\Documents and Settings\agni\Мои документы\EAC\Schola Hungarica - Magyar Gregorianum 4.wav
Пиковый уровень 85.6 %
Качество диапазона 100.0 %
CRC теста C15B127B
CRC копии C15B127B
Копирование... OK
Ошибок не произошло
AccurateRip: сводка
Трек 1 нет в базе данных
Трек 2 нет в базе данных
Трек 3 нет в базе данных
Трек 4 нет в базе данных
Трек 5 нет в базе данных
Трек 6 нет в базе данных
Трек 7 нет в базе данных
Трек 8 нет в базе данных
Трек 9 нет в базе данных
Трек 10 нет в базе данных
Трек 11 нет в базе данных
Трек 12 нет в базе данных
Трек 13 нет в базе данных
Трек 14 нет в базе данных
Трек 15 нет в базе данных
Трек 16 нет в базе данных
Трек 17 нет в базе данных
Ни одного трека нет в базе AccurateRip
Конец отчёта
[teatrix.ru].t22269.torrent 
Торрент: Зарегистрирован [ 2016-03-20 12:39 ] · 1F1F3394A7EFC864AEA03DC300EB9FB80418281C

Скачать .torrent

Скачать

33 KB

Статус: проверено
Скачан: 2 раз
Размер: 202 MB
terms.php



Быстрый ответ

Имя:

      
Для отправки сообщений необходимо включить JavaScript
Показать сообщения:    

Текущее время: 09-Дек 20:32

Часовой пояс: UTC + 3


Вы можете начинать темы
Вы можете отвечать на сообщения
Вы не можете редактировать свои сообщения
Вы не можете удалять свои сообщения
Вы не можете голосовать в опросах
Вы не можете прикреплять файлы к сообщениям
Вы можете скачивать файлы