(Medieval, Sacree, Chant, A Cappella) The Offertory: Gregorian Chant and Palestrina / Schola Hungarica, cond. Laszlo Dobszay & Janka Szendrei - 2002, WavPack (image+.cue) lossless


Статистика раздачи [Обновить пиров]
Размер:  292 MB   |    Зарегистрирован:  8 месяцев 19 дней   |    Скачан:  2 раза

Полного источника не было: 10 дней

 
   
 
 
 

[Цитировать]

The Offertory
Gregorian Chant and Palestrina
Schola Hungarica
Conducted by
László Dobszay • Janka Szendrei
Жанр: Medieval, Sacrée, Chant, A Cappella
Страна-производитель диска: Austria
Год издания диска: 2002
Издатель (лейбл): Hungaroton
Номер по каталогу: HCD 32069
Дата записи: 25-30 June 2001
Аудиокодек: WavPack
Тип рипа: image+.cue
Битрейт аудио: lossless
Продолжительность: 71:37
Источник: собственный рип
Наличие сканов в содержимом раздачи: да

Треклист

01. Reginald Libert: Ave Maria [3:14]
02. Ad te levavi (Old Roman with verses) [4:58]
03. Erit in vobis (Ambrosian with verse) [3:49]
04. Popule meus (Beneventan) [1:28]
05. Pierluigi da Palestrina: Super flumina Babylonis [2:21]
Early Gregorian Offertories with Verses for Ordinary Time
06. Super flumina Babylonis [10:56]
07. Eripe me [4:40]
08. Domine convertere [3:08]
09. Pierluigi da Palestrina: Jubilate Deo [2:35]
Gregorian Offertories without Verses
10. Angelus Domini (for Easter) [1:32]
11. Bonum est confiteri (for a Saturday in Ordinary Time) [0:52]
12. Recordare mei (for a Sunday in Ordinary Time) [1:29]
13. Deus Deus meus ad te de luce (for a Sunday of Easter) [0:58]
14. Veniens vir (for the Exaltation of the Holy Cross) [1:25]
15. Pierluigi da Palestrina: Confirma hoc Deus [2:19]
Two Offertories with Trope
16. Confirma (for Pentecost with trope: Laudes almo) [3:46]
17. Stetit angelus (for the Feast of St. Michael with trope: Salus Deo) [5:49]
18. O pie Deus (Offertory in new style in the Mass for the Dead with one verse) [3:55]
19. Pierluigi da Palestrina: Inveni David (for the Feast of a Confessor) [2:22]

Исполнители

SCHOLA HUNGARICA
Conducted by
Janka Szendrei [2], [7], [10]-[11], [13]-[14], [16]-[17]
László Dobszay [1], [3]-[6], [8]-[9], [12], [15], [18]-[19]
Soloists:
Ágnes Béres [2], Zoltán Mizsei [17], Péter Patay [16]

log EAC

Exact Audio Copy V0.99 prebeta 5 from 4. May 2009
Отчёт EAC об извлечении, выполненном 27. мая 2013, 16:35
Schola Hungarica / The Offertory: Gregorian Chant and Palestrina
Дисковод: PIONEER DVD-RW DVR-219L Adapter: 3 ID: 0
Режим чтения : Достоверность
Использование точного потока : Да
Отключение кэша аудио : Да
Использование указателей C2 : Нет
Коррекция смещения при чтении : 6
Способность читать области Lead-in и Lead-out : Нет
Заполнение пропущенных сэмплов тишиной : Да
Удаление блоков с тишиной в начале и конце : Нет
При вычислениях CRC использовались нулевые сэмплы : Да
Интерфейс : Встроенный Win32-интерфейс для Win NT/2000
Выходной формат : Внутренние WAV-операции
Формат сэмплов : 44.100 Гц; 16 бит; стерео
TOC извлечённого CD
Трек | Старт | Длительность | Начальный сектор | Конечный сектор
---------------------------------------------------------------------
1 | 0:00.00 | 3:14.08 | 0 | 14557
2 | 3:14.08 | 4:58.30 | 14558 | 36937
3 | 8:12.38 | 3:48.45 | 36938 | 54082
4 | 12:01.08 | 1:28.16 | 54083 | 60698
5 | 13:29.24 | 2:21.04 | 60699 | 71277
6 | 15:50.28 | 10:56.23 | 71278 | 120500
7 | 26:46.51 | 4:40.21 | 120501 | 141521
8 | 31:26.72 | 3:08.06 | 141522 | 155627
9 | 34:35.03 | 2:35.13 | 155628 | 167265
10 | 37:10.16 | 1:31.59 | 167266 | 174149
11 | 38:42.00 | 0:51.47 | 174150 | 178021
12 | 39:33.47 | 1:28.45 | 178022 | 184666
13 | 41:02.17 | 0:57.49 | 184667 | 188990
14 | 41:59.66 | 1:24.66 | 188991 | 195356
15 | 43:24.57 | 2:19.32 | 195357 | 205813
16 | 45:44.14 | 3:46.36 | 205814 | 222799
17 | 49:30.50 | 5:49.34 | 222800 | 249008
18 | 55:20.09 | 3:54.64 | 249009 | 266622
19 | 59:14.73 | 2:21.45 | 266623 | 277242
Характеристики диапазона извлечения и сообщения об ошибках
Выбранный диапазон
Имя файла C:\Documents and Settings\agni\Мои документы\EAC\Schola Hungarica - The Offertory.wav
Пиковый уровень 96.7 %
Качество диапазона 100.0 %
CRC теста E7D7A994
CRC копии E7D7A994
Копирование... OK
Ошибок не произошло
AccurateRip: сводка
Трек 1 нет в базе данных
Трек 2 нет в базе данных
Трек 3 нет в базе данных
Трек 4 нет в базе данных
Трек 5 нет в базе данных
Трек 6 нет в базе данных
Трек 7 нет в базе данных
Трек 8 нет в базе данных
Трек 9 нет в базе данных
Трек 10 нет в базе данных
Трек 11 нет в базе данных
Трек 12 нет в базе данных
Трек 13 нет в базе данных
Трек 14 нет в базе данных
Трек 15 нет в базе данных
Трек 16 нет в базе данных
Трек 17 нет в базе данных
Трек 18 нет в базе данных
Трек 19 нет в базе данных
Ни одного трека нет в базе AccurateRip
Конец отчёта
[teatrix.ru].t22270.torrent 
Торрент: Зарегистрирован [ 2016-03-20 12:39 ] · 39ED7FE98696C5772EF281F76EF606D018DE4054

Скачать .torrent

Скачать

25 KB

Статус: проверено
Скачан: 2 раз
Размер: 292 MB
terms.php



Быстрый ответ

Имя:

      
Для отправки сообщений необходимо включить JavaScript
Показать сообщения:    

Текущее время: 08-Дек 19:10

Часовой пояс: UTC + 3


Вы можете начинать темы
Вы можете отвечать на сообщения
Вы не можете редактировать свои сообщения
Вы не можете удалять свои сообщения
Вы не можете голосовать в опросах
Вы не можете прикреплять файлы к сообщениям
Вы можете скачивать файлы