(Medieval, Sacree, Chant, A Cappella) The Holy Lady of Chartres / Schola Hungarica, cond. Laszlo Dobszay & Janka Szendrei - 2000, WavPack (image+.cue) lossless


Статистика раздачи [Обновить пиров]
Размер:  379 MB   |    Зарегистрирован:  8 месяцев 14 дней   |    Скачан:  2 раза

Полного источника не было: 2 дня 6 часов

 
   
 
 
 

[Цитировать]

The Holy Lady of Chartres
Schola Hungarica
Conducted by
László Dobszay • Janka Szendrei
Жанр: Medieval, Sacrée, Chant, A Cappella
Страна-производитель диска: Austria
Год издания диска: 2000
Издатель (лейбл): Hungaroton
Номер по каталогу: HCD 31922
Дата записи: 16-22 June 1999
Аудиокодек: WavPack
Тип рипа: image+.cue
Битрейт аудио: lossless
Продолжительность: 75:53
Источник: собственный рип
Наличие сканов в содержимом раздачи: да

Треклист

Introduction
01. Hymnus: Nuntium vobis [0:31]
02. Sequentia: Sonent Regi nato [1:19]
Mass for the feast of Purification
03. Tropus: Ecce venit - Introitus: Suscepimus Deus [6:49]
04. Graduale: Suscepimus Deus [2:17]
05. Tropus: Salve Sancta - Offertorium: Diffusa est [2:27]
06. Communio: Responsum accepit [0:39]
07. Benedicamus on the melody of «Stirp Jesse» (2 voices) [2:49]
Responsories for the common office of the Virgin Mary
08. Responsory: Solem justitiæ (On Mary's Born Feast) [2:22]
09. Benedicamus on the melody of «Flos filius» (3 voices) [1:11]
10. Responsory: O decus virginitatis (chants for Mary's Feast) [2:26]
11. Responsory: Stirps Jesse [2:45]
12. Responsory: Ad nutum Domini [1:47]
13. Responsory: Intermerata virum [2:10]
14. Responsory: Cæli regina [2:21]
15. Responsory: Integer ardorem [2:04]
16. Responsory: Floruit egressa [1:28]
17. Responsory: Lampas superno lumine [1:24]
18. Responsory: Salve nobilis virga [1:49]
19. Benedicamus on the melody of «Stirp Jesse» (2 voices) [2:32]
Mass for the feast of the Assumption of the Virgin Mary
20. Introitus: Gaudeamus omnes [3:11]
21. Kyrie Rex genitor [2:23]
22. Gloria in excelsis - Tropus: Cujus reboat [6:00]
23. Graduale: Propter veritatem [2:25]
24. Alleluja: Per te Dei Genitrix [2:16]
25. Sequentia: Area virga [3:41]
26. Antiphon before the Gospel: Anima mea [1:24]
27. Offertorium: Felix namque - Tropus: Felix et Genitrix [2:44]
28. Sanctus - Tropus: Sancte ingenite [2:58]
29. Agnus Dei [0:47]
30. Communio: Vera fides Geniti [0:32]
31. «Stirps Jesse» (3 voices) [2:13]
Conclusion
32. Pater noster - Tropus: Fidem auge [4:10]

Исполнители

SCHOLA HUNGARICA
Directed by
László Dobszay [1]-[7], [9], [11], [13], [16], [18], [20], [23]
Janka Szendrei [8], [10], [12], [14], [15], [17], [19], [21], [22], [24]-[32]
Soloists:
Gábor Dunai [1]
Orsolya Csomó [5]
János Bali [7]
Judit Fehér [19]
Zoltán Mizsei [22]
András Soós [32]

log EAC

Exact Audio Copy V0.99 prebeta 5 from 4. May 2009
Отчёт EAC об извлечении, выполненном 27. мая 2013, 18:11
Schola Hungarica / The Holy Lady of Chartres
Дисковод: PIONEER DVD-RW DVR-219L Adapter: 3 ID: 0
Режим чтения : Достоверность
Использование точного потока : Да
Отключение кэша аудио : Да
Использование указателей C2 : Нет
Коррекция смещения при чтении : 6
Способность читать области Lead-in и Lead-out : Нет
Заполнение пропущенных сэмплов тишиной : Да
Удаление блоков с тишиной в начале и конце : Нет
При вычислениях CRC использовались нулевые сэмплы : Да
Интерфейс : Встроенный Win32-интерфейс для Win NT/2000
Выходной формат : Внутренние WAV-операции
Формат сэмплов : 44.100 Гц; 16 бит; стерео
TOC извлечённого CD
Трек | Старт | Длительность | Начальный сектор | Конечный сектор
---------------------------------------------------------------------
1 | 0:00.00 | 0:31.00 | 0 | 2324
2 | 0:31.00 | 1:18.67 | 2325 | 8241
3 | 1:49.67 | 6:49.34 | 8242 | 38950
4 | 8:39.26 | 2:16.43 | 38951 | 49193
5 | 10:55.69 | 2:27.05 | 49194 | 60223
6 | 13:22.74 | 0:39.06 | 60224 | 63154
7 | 14:02.05 | 2:48.60 | 63155 | 75814
8 | 16:50.65 | 2:21.74 | 75815 | 86463
9 | 19:12.64 | 1:10.63 | 86464 | 91776
10 | 20:23.52 | 2:25.47 | 91777 | 102698
11 | 22:49.24 | 2:45.00 | 102699 | 115073
12 | 25:34.24 | 1:47.04 | 115074 | 123102
13 | 27:21.28 | 2:09.48 | 123103 | 132825
14 | 29:31.01 | 2:20.48 | 132826 | 143373
15 | 31:51.49 | 2:03.43 | 143374 | 152641
16 | 33:55.17 | 1:28.37 | 152642 | 159278
17 | 35:23.54 | 1:24.00 | 159279 | 165578
18 | 36:47.54 | 1:48.69 | 165579 | 173747
19 | 38:36.48 | 2:32.01 | 173748 | 185148
20 | 41:08.49 | 3:11.04 | 185149 | 199477
21 | 44:19.53 | 2:23.18 | 199478 | 210220
22 | 46:42.71 | 6:00.18 | 210221 | 237238
23 | 52:43.14 | 2:24.49 | 237239 | 248087
24 | 55:07.63 | 2:16.00 | 248088 | 258287
25 | 57:23.63 | 3:40.48 | 258288 | 274835
26 | 61:04.36 | 1:23.41 | 274836 | 281101
27 | 62:28.02 | 2:44.00 | 281102 | 293401
28 | 65:12.02 | 2:57.70 | 293402 | 306746
29 | 68:09.72 | 0:47.07 | 306747 | 310278
30 | 68:57.04 | 0:32.22 | 310279 | 312700
31 | 69:29.26 | 2:13.18 | 312701 | 322693
32 | 71:42.44 | 4:10.23 | 322694 | 341466
Характеристики диапазона извлечения и сообщения об ошибках
Выбранный диапазон
Имя файла C:\Documents and Settings\agni\Мои документы\EAC\Schola Hungarica - The Holy Lady of Chartres.wav
Пиковый уровень 91.7 %
Качество диапазона 100.0 %
CRC теста D033B21F
CRC копии D033B21F
Копирование... OK
Ошибок не произошло
AccurateRip: сводка
Трек 1 точное извлечение (доверие 1) [9BEB04DE]
Трек 2 точное извлечение (доверие 1) [8118B484]
Трек 3 точное извлечение (доверие 1) [C18DB874]
Трек 4 точное извлечение (доверие 1) [E240F953]
Трек 5 точное извлечение (доверие 1) [F381AD04]
Трек 6 точное извлечение (доверие 1) [5DD59B42]
Трек 7 точное извлечение (доверие 1) [E128F677]
Трек 8 точное извлечение (доверие 1) [094CD2CB]
Трек 9 точное извлечение (доверие 1) [73A705CE]
Трек 10 точное извлечение (доверие 1) [87FA0227]
Трек 11 точное извлечение (доверие 1) [1A76F7A6]
Трек 12 точное извлечение (доверие 1) [90E9C051]
Трек 13 точное извлечение (доверие 1) [4079F554]
Трек 14 точное извлечение (доверие 1) [F625D7FD]
Трек 15 точное извлечение (доверие 1) [100C69EB]
Трек 16 точное извлечение (доверие 1) [18D0A62C]
Трек 17 точное извлечение (доверие 1) [DB7EBC85]
Трек 18 точное извлечение (доверие 1) [2895C41A]
Трек 19 точное извлечение (доверие 1) [43411053]
Трек 20 точное извлечение (доверие 1) [E2AC3455]
Трек 21 точное извлечение (доверие 1) [8166DDBE]
Трек 22 точное извлечение (доверие 1) [882FF85C]
Трек 23 точное извлечение (доверие 1) [8E82723C]
Трек 24 точное извлечение (доверие 1) [107C9614]
Трек 25 точное извлечение (доверие 1) [7E622253]
Трек 26 точное извлечение (доверие 1) [0EEB7A6E]
Трек 27 точное извлечение (доверие 1) [6DED732D]
Трек 28 точное извлечение (доверие 1) [F7219188]
Трек 29 точное извлечение (доверие 1) [462F6544]
Трек 30 точное извлечение (доверие 1) [46AD65C8]
Трек 31 точное извлечение (доверие 1) [EE3B59CA]
Трек 32 точное извлечение (доверие 1) [2E5EC045]
Все треки извлечены точно
Конец отчёта
[teatrix.ru].t22271.torrent 
Торрент: Зарегистрирован [ 2016-03-20 12:39 ] · 7FCBB27619FF96C7AB81D4A5604E4D6EDE70BEC5

Скачать .torrent

Скачать

32 KB

Статус: проверено
Скачан: 2 раз
Размер: 379 MB
terms.php



Быстрый ответ

Имя:

      
Для отправки сообщений необходимо включить JavaScript
Показать сообщения:    

Текущее время: 03-Дек 18:36

Часовой пояс: UTC + 3


Вы можете начинать темы
Вы можете отвечать на сообщения
Вы не можете редактировать свои сообщения
Вы не можете удалять свои сообщения
Вы не можете голосовать в опросах
Вы не можете прикреплять файлы к сообщениям
Вы можете скачивать файлы