(Medieval, Sacree, Chant, A Cappella) Historiae: The Offices of St. Lawrence's and Mary Magdalen's / Schola Hungarica, cond. Laszlo Dobszay & Janka Szendrei - 1998, WavPack (image+.cue) lossless


Статистика раздачи [Обновить пиров]
Размер:  356 MB   |    Зарегистрирован:  8 месяцев 17 дней   |    Скачан:  2 раза

Полного источника не было: 8 дней

 
   
 
 
 

[Цитировать]

Historiae
The Offices of St. Lawrence's
and
Mary Magdalen's

Gregorian Chants
Schola Hungarica
Conducted by
László Dobszay • Janka Szendrei
Жанр: Medieval, Sacrée, Chant, A Cappella
Страна-производитель диска: Austria
Год издания диска: 1998
Издатель (лейбл): Hungaroton
Номер по каталогу: HCD 31760
Дата записи: 27-29 June 1997
Аудиокодек: WavPack
Тип рипа: image+.cue
Битрейт аудио: lossless
Продолжительность: 72:06
Источник: собственный рип
Наличие сканов в содержимом раздачи: да

Треклист

The Office of St. Lawrence
01. Invitatory: Regem sempiternum [3:44]
The 1st Nocturn:
02. Antiphons: a. Quo progrederis - b. Noli me derelinquere - c. Non ego te desero
Versicle: Gloria et honore [2:47]
Responsories (with readings):
03. a. Milites Decii - Levita Laurentius [2:37]
04. b. Gavisus Decius - Quo progrederis [3:00]
05. c. Decius Caesar - Noli me derelinquere [2:51]
The 2nd Nocturn:
06. Antiphons: a. Beatus Laurentius orabat - b. Beatus Laurentius dixit - c. Dixit Romanus
Versicle: Posuisti Domine [3:27]
Responsories (with readings):
07. a. Et cum venisset - Beatus Laurentius clamavit [2:28]
08. b. Valerianus dixit - Strinxerunt corporis membra [2:52]
09. c. Decius Caesar jussit - Beatus Laurentius dixit [2:28]
The 3rd Nocturn:
10. Antiphons: a. Strinxerunt corporis - b. Igne me examinasti - c. Interrogatus te
Versicle: Justus ut palma [2:59]
Responsories (with readings):
11. a. Decius dixit: Adducxite - In craticula te Deum [1:46]
12. b. Et allati sunt - Gaudeo plane [2:24]
13. c. Ille vero vultu - Meruit esse hostia [2:23]
14. Antiphon: Levita Laurentius bonum opus [1:34]
Historia Mariae Magdalenae - The History of Mary Magdalen
Introduction:
15. Hymn: Jesu Christe auctor vitae [1:37]
16. Antiphon: Fidelis sermo [2:16]
At Simon’s House
17. a. Reading: Rogabat autem - Antiphon: Stans retro [1:25]
18. b. Reading: Videns autem - Responsory: Maria Magdalene quae [3:53]
19. c. Reading: Remittuntur ei - Responsory: Flavit Auster [2:53]
Mary and Martha
20. a. Three-part Gospel: In illo tempore [3:13]
21. b. Responsory: Intravit Jesus [2:46]
The Apostle of apostles
22. a. Four-part antiphon: Pax vobis [2:55]
23. b. Responsory: Maria Magdalene et altera [2:11]
24. c. Antiphons: Maria stabat - Ardens est [1:10]
25. d. Responsory: Tulerunt Dominum meum [2:17]
26. e. Antiphon: Dixit Jesus, Maria [0:46]
27. f. Responsory: Congratulamini mihi [2:03]
Appendix:
28. a. Four-part Hymn: Lauda mater ecclesia [4:15]
29. b. Antiphon: Sancta Maria Magdalene [1:06]

Исполнители

SCHOLA HUNGARICA
Soloists:
Ágnes Béres [17], [20], Ágnes Dobszay [18], [20], Ildikó Fodor [19], [20], [24]
Conducted by
László Dobszay [1]-[14], [22], [26] and Janka Szendrei [15]-[21], [23]-[27], [29]

log EAC

Exact Audio Copy V0.99 prebeta 5 from 4. May 2009
Отчёт EAC об извлечении, выполненном 27. мая 2013, 22:08
Schola Hungarica / Historiae: The Offices of St. Lawrence's and Mary Magdalen's (Gregorian Chants)
Дисковод: PIONEER DVD-RW DVR-219L Adapter: 3 ID: 0
Режим чтения : Достоверность
Использование точного потока : Да
Отключение кэша аудио : Да
Использование указателей C2 : Нет
Коррекция смещения при чтении : 6
Способность читать области Lead-in и Lead-out : Нет
Заполнение пропущенных сэмплов тишиной : Да
Удаление блоков с тишиной в начале и конце : Нет
При вычислениях CRC использовались нулевые сэмплы : Да
Интерфейс : Встроенный Win32-интерфейс для Win NT/2000
Выходной формат : Внутренние WAV-операции
Формат сэмплов : 44.100 Гц; 16 бит; стерео
TOC извлечённого CD
Трек | Старт | Длительность | Начальный сектор | Конечный сектор
---------------------------------------------------------------------
1 | 0:00.00 | 3:44.31 | 0 | 16830
2 | 3:44.31 | 2:46.48 | 16831 | 29328
3 | 6:31.04 | 2:37.32 | 29329 | 41135
4 | 9:08.36 | 2:59.48 | 41136 | 54608
5 | 12:08.09 | 2:50.69 | 54609 | 67427
6 | 14:59.03 | 3:26.62 | 67428 | 82939
7 | 18:25.65 | 2:28.07 | 82940 | 94046
8 | 20:53.72 | 2:51.54 | 94047 | 106925
9 | 23:45.51 | 2:27.58 | 106926 | 118008
10 | 26:13.34 | 2:58.71 | 118009 | 131429
11 | 29:12.30 | 1:45.74 | 131430 | 139378
12 | 30:58.29 | 2:24.25 | 139379 | 150203
13 | 33:22.54 | 2:23.07 | 150204 | 160935
14 | 35:45.61 | 1:34.01 | 160936 | 167986
15 | 37:19.62 | 1:36.39 | 167987 | 175225
16 | 38:56.26 | 2:16.29 | 175226 | 185454
17 | 41:12.55 | 1:24.39 | 185455 | 191793
18 | 42:37.19 | 3:53.05 | 191794 | 209273
19 | 46:30.24 | 2:53.16 | 209274 | 222264
20 | 49:23.40 | 3:12.59 | 222265 | 236723
21 | 52:36.24 | 2:46.21 | 236724 | 249194
22 | 55:22.45 | 2:55.29 | 249195 | 262348
23 | 58:17.74 | 2:10.70 | 262349 | 272168
24 | 60:28.69 | 1:10.37 | 272169 | 277455
25 | 61:39.31 | 2:16.70 | 277456 | 287725
26 | 63:56.26 | 0:45.63 | 287726 | 291163
27 | 64:42.14 | 2:03.20 | 291164 | 300408
28 | 66:45.34 | 4:14.39 | 300409 | 319497
29 | 70:59.73 | 1:06.11 | 319498 | 324458
Характеристики диапазона извлечения и сообщения об ошибках
Выбранный диапазон
Имя файла C:\Documents and Settings\agni\Мои документы\EAC\Schola Hungarica - Historiae.wav
Пиковый уровень 91.2 %
Качество диапазона 99.9 %
CRC теста 7283971F
CRC копии 7283971F
Копирование... OK
Ошибок не произошло
AccurateRip: сводка
Трек 1 точное извлечение (доверие 1) [36CDD528]
Трек 2 точное извлечение (доверие 1) [4A838C0A]
Трек 3 точное извлечение (доверие 1) [B013C1B6]
Трек 4 точное извлечение (доверие 1) [7CD9EAF0]
Трек 5 точное извлечение (доверие 1) [DDF547B2]
Трек 6 точное извлечение (доверие 1) [21038EF4]
Трек 7 точное извлечение (доверие 1) [532171AA]
Трек 8 точное извлечение (доверие 1) [EA77AE17]
Трек 9 точное извлечение (доверие 1) [DD9BCE62]
Трек 10 точное извлечение (доверие 1) [D92568A4]
Трек 11 точное извлечение (доверие 1) [8A2DCA58]
Трек 12 точное извлечение (доверие 1) [E3D40808]
Трек 13 точное извлечение (доверие 1) [D5B256C4]
Трек 14 точное извлечение (доверие 1) [001F348F]
Трек 15 точное извлечение (доверие 1) [C6F974E4]
Трек 16 точное извлечение (доверие 1) [21191CB6]
Трек 17 точное извлечение (доверие 1) [5D84B57B]
Трек 18 точное извлечение (доверие 1) [EFB7B5F7]
Трек 19 точное извлечение (доверие 1) [48163C4A]
Трек 20 точное извлечение (доверие 1) [2EFC06EE]
Трек 21 точное извлечение (доверие 1) [B38C32B1]
Трек 22 точное извлечение (доверие 1) [940E0F2B]
Трек 23 точное извлечение (доверие 1) [77366FF1]
Трек 24 точное извлечение (доверие 1) [255F410C]
Трек 25 точное извлечение (доверие 1) [07F94EB0]
Трек 26 точное извлечение (доверие 1) [334E853C]
Трек 27 точное извлечение (доверие 1) [B1037582]
Трек 28 точное извлечение (доверие 1) [07616007]
Трек 29 точное извлечение (доверие 1) [89F5DE0C]
Все треки извлечены точно
Конец отчёта
[teatrix.ru].t22272.torrent 
Торрент: Зарегистрирован [ 2016-03-20 12:39 ] · 91534E25519A6373AF49949241CAAEA15271755A

Скачать .torrent

Скачать

31 KB

Статус: проверено
Скачан: 2 раз
Размер: 356 MB
terms.php



Быстрый ответ

Имя:

      
Для отправки сообщений необходимо включить JavaScript
Показать сообщения:    

Текущее время: 06-Дек 20:53

Часовой пояс: UTC + 3


Вы можете начинать темы
Вы можете отвечать на сообщения
Вы не можете редактировать свои сообщения
Вы не можете удалять свои сообщения
Вы не можете голосовать в опросах
Вы не можете прикреплять файлы к сообщениям
Вы можете скачивать файлы