[TR24][SM][OF] Johann Sebastian Bach - Organ Works; BWV565, 590, 767, 572, 535, 769, 548, (Masaaki Suzuki) - 2015 (Classical)


Статистика раздачи [Обновить пиров]
Размер:  1.35 GB   |    Зарегистрирован:  8 месяцев 19 дней   |    Скачан:  1 раз

Полного источника не было: 3 часа

 
   
 
 
 

[Цитировать]

Johann Sebastian Bach - Organ Works (Masaaki Suzuki)
Год издания: 2015
Жанр: Classical
Издатель (лейбл): Bis Records / BIS-SACD-2111
Продолжительность: 01:19:27
Наличие сканов: да
Исполнители:
Masaaki Suzuki - organ

Треклист:

Toccata and Fugue in D minor, BWV565:
01. Toccata (02:27)
02. Fugue (06:13)
Pastorale (Pastorella) in F major, BWV590:
03. [F major] (02:42)
04. [C major] (02:43)
05. [C minor] (03:02)
06. [F major] (04:27)
Partite diverse sopra il Corale ‘O Gott, du frommer Gott’, BWV767:
07. Partita I (01:05)
08. Partita II (a 2 Clav.) (02:40)
09. Partita III (01:15)
10. Partita IV (00:50)
11. Partita V (01:20)
12. Partita VI (01:13)
13. Partita VII (01:33)
14. Partita VIII (02:11)
15. Partita IX (a 2 Clav.) (03:11)
16. Fantasia (Piece d’orgue) in G major, BWV572 (08:46)
Prelude and Fugue in G minor, BWV535:
17. Prelude (02:47)
18. Fugue (04:30)
Canonic Variations on ‘Vom Himmel hoch da komm’ ich her’, BWV769:
19. I. Canone all’ Ottava (01:25)
20. II. Alio modo in Canone alla Quinta (01:16)
21. III. Canone alla Settima (02:24)
22. IV. Canon all’ Ottava per augmentationem (03:24)
23. V. L’altra sorte del Canone all’ rovescio (03:07)
Prelude and Fugue in E minor, BWV548:
24. Prelude (06:42)
25. Fugue (08:14)
-Контейнер: FLAC (*.flac)
Тип рипа: tracks
Разрядность: 24bit / 96kHz
Количество каналов: 2.0-

Динамический диапазон - DR:

foobar2000 1.3.2 / Замер динамического диапазона (DR) 1.1.1
Дата отчёта: 2015-09-16 17:30:30
--------------------------------------------------------------------------------
Анализ: Masaaki Suzuki / Johann Sebastian Bach: Organ Works
--------------------------------------------------------------------------------
DR Пики RMS Продолжительность трека
--------------------------------------------------------------------------------
DR10 -3.59 дБ -18.96 дБ 2:27 01-Toccata and Fugue in D minor, BWV565: Toccata
DR12 -0.23 дБ -19.02 дБ 6:13 02-Toccata and Fugue in D minor, BWV565: Fugue
DR10 -15.00 дБ -28.05 дБ 2:42 03-Pastorale (Pastorella) in F major, BWV590: [F major]
DR9 -15.73 дБ -28.64 дБ 2:43 04-Pastorale (Pastorella) in F major, BWV590: [C major]
DR10 -17.73 дБ -31.55 дБ 3:02 05-Pastorale (Pastorella) in F major, BWV590: [C minor]
DR10 -10.87 дБ -24.34 дБ 4:27 06-Pastorale (Pastorella) in F major, BWV590: [F major]
DR9 -9.44 дБ -21.05 дБ 1:05 07-Partite diverse sopra il Corale ‘O Gott, du frommer Gott’, BWV767: Partita I
DR11 -15.72 дБ -29.53 дБ 2:40 08-Partite diverse sopra il Corale ‘O Gott, du frommer Gott’, BWV767: Partita II (a 2 Clav.)
DR10 -19.81 дБ -32.75 дБ 1:15 09-Partite diverse sopra il Corale ‘O Gott, du frommer Gott’, BWV767: Partita III
DR10 -19.62 дБ -31.16 дБ 0:50 10-Partite diverse sopra il Corale ‘O Gott, du frommer Gott’, BWV767: Partita IV
DR10 -19.14 дБ -32.30 дБ 1:20 11-Partite diverse sopra il Corale ‘O Gott, du frommer Gott’, BWV767: Partita V
DR10 -14.41 дБ -26.02 дБ 1:13 12-Partite diverse sopra il Corale ‘O Gott, du frommer Gott’, BWV767: Partita VI
DR10 -17.62 дБ -29.42 дБ 1:33 13-Partite diverse sopra il Corale ‘O Gott, du frommer Gott’, BWV767: Partita VII
DR8 -11.88 дБ -22.70 дБ 2:11 14-Partite diverse sopra il Corale ‘O Gott, du frommer Gott’, BWV767: Partita VIII
DR11 -11.31 дБ -26.27 дБ 3:11 15-Partite diverse sopra il Corale ‘O Gott, du frommer Gott’, BWV767: Partita IX (a 2 Clav.)
DR11 -2.27 дБ -16.84 дБ 8:46 16-Fantasia (Pièce d’orgue) in G major, BWV572
DR10 -9.46 дБ -24.04 дБ 2:47 17-Prelude and Fugue in G minor, BWV535: Prelude
DR11 -5.14 дБ -21.48 дБ 4:30 18-Prelude and Fugue in G minor, BWV535: Fugue
DR8 -14.12 дБ -26.56 дБ 1:25 19-Canonic Variations on ‘Vom Himmel hoch da komm’ ich her’, BWV769: I. Canone all’ Ottava
DR8 -13.07 дБ -24.33 дБ 1:16 20-Canonic Variations on ‘Vom Himmel hoch da komm’ ich her’, BWV769: II. Alio modo in Canone alla Quinta
DR9 -10.51 дБ -22.54 дБ 2:24 21-Canonic Variations on ‘Vom Himmel hoch da komm’ ich her’, BWV769: III. Canone alla Settima
DR9 -11.95 дБ -24.21 дБ 3:24 22-Canonic Variations on ‘Vom Himmel hoch da komm’ ich her’, BWV769: IV. Canon all’ Ottava per augmentationem
DR11 -3.08 дБ -19.69 дБ 3:07 23-Canonic Variations on ‘Vom Himmel hoch da komm’ ich her’, BWV769: V. L’altra sorte del Canone all’ rovescio
DR11 -4.90 дБ -18.32 дБ 6:42 24-Prelude and Fugue in E minor, BWV548: Prelude
DR11 -3.15 дБ -17.77 дБ 8:14 25-Prelude and Fugue in E minor, BWV548: Fugue
--------------------------------------------------------------------------------
Количество треков: 25
Реальные значения DR: DR10
Частота: 96000 Гц
Каналов: 2
Разрядность: 24
Битрейт: 2597 кбит/с
Кодек: FLAC
================================================================================
[teatrix.ru].t22276.torrent 
Торрент: Зарегистрирован [ 2016-03-20 12:39 ] · 877CB830B70D8995403B25924613175DACF8F691

Скачать .torrent

Скачать

16 KB

Статус: проверено
Скачан: 1 раз
Размер: 1.35 GB
terms.php



Быстрый ответ

Имя:

      
Для отправки сообщений необходимо включить JavaScript
Показать сообщения:    

Текущее время: 08-Дек 19:08

Часовой пояс: UTC + 3


Вы можете начинать темы
Вы можете отвечать на сообщения
Вы не можете редактировать свои сообщения
Вы не можете удалять свои сообщения
Вы не можете голосовать в опросах
Вы не можете прикреплять файлы к сообщениям
Вы можете скачивать файлы