(Baroque Ballet-Opera) Rameau • La Guirlande • Zephyre (Daneman, Agnew, Mechaly, Ockenden - WDR Capella Coloniensis / Coeur & Orchestra Les Arts Florissants, Christie) - 2001, APE (image+.cue) lossless


 

[Цитировать]

Jean-Philippe Rameau • La Guirlande • Zéphyre
Жанр: Baroque Ballet-Opera
Страна-производитель диска: Germany
Год издания диска: 2001
Издатель (лейбл): Erato
Номер по каталогу: 8573-85774-2
Дата записи: 2000
Аудиокодек: APE
Тип рипа: image+.cue
Битрейт аудио: lossless
Продолжительность: 53'47+41'32
Источник: собственный рип
Наличие сканов в содержимом раздачи: да
Треклист / Исполнители:La Guirlande
Треклист:
1. Scene 1: "Ritournelle"
2. Scene 1: "Peut-on être à la fois si tendre et si volage?"
3. Scene 1: "Ranimez-vous..."
4. Scene 1: "Toi qui vis mon erreur"
5. Scene 1: "Mais j'entends les bergers que ta fête rassemble"
6. Scene 2: "Air gracieux"
7. Scene 2: "Hâtons-nous..."
8. Scene 2: "Menuets"
9. Scene 3: "Zélide, nos plaisirs n'ont rien qui vous amuse?"
10. Scene 3: "Tout languit dans nos bois..."
11. Scene 4: "Que vois-je?"
12. Scene 5: "Je vous revois, belle Zélinde"
13. Scene 5: "Nos bergers de l'Amour vont célébrer la fête"
14. Scene 5: "Triomphe, triomphe, Amour"
15. Scene 6: "Aimons, aimons"
16. Scene 6: "Bergers qui vont offrir leurs guirlandes à l'Amour"
17. Scene 6: "Sons brillants..."
18. Scene 6: "La flûte est des soupirs le plus tendre interprète"
19. Scene 6: "Air gracieux en rondeau"
20. Scene 6: "Entrée des Pâtres"
21. Scene 6: "Musette"
22. Scene 6: "Gavotte (Rigaudon gai)"
23. Scene 6: "Quand du Dieu des bois"
24. Scene 6: "Pantomime noble"
25. Scene 6: "Air gracieux, tambourins"
26. Scene 6: "Vole, Amour"
27. Scene 6: "Contredanse"
Zelide - Sophie Daneman, soprano
Myrtil - Paul Agnew, countertenor
Hylas - Francois Bazola, bass
Choeur des Arts Florissants
Capella Coloniensis des WDR
Les Arts Florissants
William ChristieZéphyre
Треклист:
1. Scene 1: "Prélude"
2. Scene 1: "Les Nymphes de Diane approchent de ces lieux"
3. Scene 1: "On vient; sous cet épais feuillage"
4. Scene 2: "Gavottes"
5. Scene 2: "Ô Diane, pourquoi vous séparer de nous?"
6. Scene 3: "Où courez-vous, Nymphe charmante?"
7. Scene 3: "Où suis-je?"
8. Scene 3: "L'Amour a des appas toujours victorieux"
9. Scene 4: "Courons, signalons notre zèle!"
10. Scene 5: "Air"
11. Scene 5: "Passepieds"
12. Scene 5: "Que craignez-vous d'un Dieu que l'univers adore?"
13. Scene 5: "Air"
14. Scene 5: "Menuets"
15. Scene 5: "Gavotte"
16. Scene 5: "Vous ne devez l'éclat des fleurs"
17. Scene 5: "Sarabande"
18. Scene 5: "Quels sons! Quelle vive lumière!"
19. Scene 6: "Qu'il est doux de suivre"
20. Scene 6: "Sarabande"
21. Scene 6: "Gavottes"
22. Scene 6: "Amour, sois le Dieu de nos âmes"
23. Scene 6: "Contredanse"
Zéphyre - Gaëlle Méchaly, soprano
Cloris - Rebecca Ockenden, soprano
Diane - Sophie Decaudaveine, soprano
Choeur des Arts Florissants
Capella Coloniensis des WDR
Les Arts Florissants
William Christie

Лог создания рипа

CD1

Exact Audio Copy V1.0 beta 6 from 9. April 2015
EAC extraction logfile from 15. September 2015, 23:49
Daneman, Agnew, Bazula - Arts Florissants & Choeur_WDR Capella Coloniensis / Rameau - La Guirlande, Christie
Used drive : TS8XDVDSTRANSCEND Adapter: 1 ID: 1
Read mode : Secure
Utilize accurate stream : Yes
Defeat audio cache : Yes
Make use of C2 pointers : No
Read offset correction : 6
Overread into Lead-In and Lead-Out : No
Fill up missing offset samples with silence : Yes
Delete leading and trailing silent blocks : No
Null samples used in CRC calculations : Yes
Used interface : Native Win32 interface for Win NT & 2000
Used output format : Monkey's Audio Lossless Encoder
Selected bitrate : High Lossless Compression
Quality : High
Add ID3 tag : Yes
Command line compressor : C:\Program Files (x86)\Exact Audio Copy\MAC\MAC.exe
TOC of the extracted CD
Track | Start | Length | Start sector | End sector
---------------------------------------------------------
1 | 0:00.00 | 0:55.22 | 0 | 4146
2 | 0:55.22 | 1:55.73 | 4147 | 12844
3 | 2:51.20 | 2:22.27 | 12845 | 23521
4 | 5:13.47 | 0:55.28 | 23522 | 27674
5 | 6:09.00 | 0:33.37 | 27675 | 30186
6 | 6:42.37 | 1:32.45 | 30187 | 37131
7 | 8:15.07 | 0:38.28 | 37132 | 40009
8 | 8:53.35 | 1:36.37 | 40010 | 47246
9 | 10:29.72 | 2:09.08 | 47247 | 56929
10 | 12:39.05 | 6:11.17 | 56930 | 84771
11 | 18:50.22 | 1:09.58 | 84772 | 90004
12 | 20:00.05 | 5:43.67 | 90005 | 115796
13 | 25:43.72 | 0:19.13 | 115797 | 117234
14 | 26:03.10 | 1:10.27 | 117235 | 122511
15 | 27:13.37 | 0:48.20 | 122512 | 126131
16 | 28:01.57 | 2:04.58 | 126132 | 135489
17 | 30:06.40 | 1:20.65 | 135490 | 141554
18 | 31:27.30 | 2:07.27 | 141555 | 151106
19 | 33:34.57 | 2:07.30 | 151107 | 160661
20 | 35:42.12 | 2:11.10 | 160662 | 170496
21 | 37:53.22 | 0:51.23 | 170497 | 174344
22 | 38:44.45 | 0:32.10 | 174345 | 176754
23 | 39:16.55 | 1:23.25 | 176755 | 183004
24 | 40:40.05 | 3:14.25 | 183005 | 197579
25 | 43:54.30 | 2:49.30 | 197580 | 210284
26 | 46:43.60 | 5:59.27 | 210285 | 237236
27 | 52:43.12 | 1:04.18 | 237237 | 242054
Range status and errors
Selected range
Filename D:\EAC\Rameau - La Guirlande, Christie.wav
Peak level 100.0 %
Extraction speed 4.2 X
Range quality 99.9 %
Test CRC 9E75CB22
Copy CRC 9E75CB22
Copy OK
No errors occurred
AccurateRip summary
Track 1 accurately ripped (confidence 22) [72C30C6D] (AR v2)
Track 2 accurately ripped (confidence 23) [BA8F5F1A] (AR v2)
Track 3 accurately ripped (confidence 23) [12E7073F] (AR v2)
Track 4 accurately ripped (confidence 23) [35B4D790] (AR v2)
Track 5 accurately ripped (confidence 23) [2342F78B] (AR v2)
Track 6 accurately ripped (confidence 23) [A57AE76B] (AR v2)
Track 7 accurately ripped (confidence 24) [4DA862A2] (AR v2)
Track 8 accurately ripped (confidence 24) [6485B2B7] (AR v2)
Track 9 accurately ripped (confidence 24) [BAB94974] (AR v2)
Track 10 accurately ripped (confidence 24) [6D7D6686] (AR v2)
Track 11 accurately ripped (confidence 24) [1124121D] (AR v2)
Track 12 accurately ripped (confidence 24) [978A0A45] (AR v2)
Track 13 accurately ripped (confidence 24) [170A210F] (AR v2)
Track 14 accurately ripped (confidence 24) [9086D533] (AR v2)
Track 15 accurately ripped (confidence 24) [7D5733EA] (AR v2)
Track 16 accurately ripped (confidence 24) [B0ED7788] (AR v2)
Track 17 accurately ripped (confidence 24) [802CBC31] (AR v2)
Track 18 accurately ripped (confidence 24) [72F941CB] (AR v2)
Track 19 accurately ripped (confidence 24) [84D845AD] (AR v2)
Track 20 accurately ripped (confidence 24) [1686D487] (AR v2)
Track 21 accurately ripped (confidence 24) [AF3F554C] (AR v2)
Track 22 accurately ripped (confidence 24) [B5E11976] (AR v2)
Track 23 accurately ripped (confidence 24) [F7F7C775] (AR v2)
Track 24 accurately ripped (confidence 24) [F99B817D] (AR v2)
Track 25 accurately ripped (confidence 24) [B23575A8] (AR v2)
Track 26 accurately ripped (confidence 24) [0945FF3B] (AR v2)
Track 27 accurately ripped (confidence 24) [6A496EAF] (AR v2)
All tracks accurately ripped
End of status report
---- CUETools DB Plugin V2.1.6
[CTDB TOCID: hHTR4LqbmwX_XtoronhVxSArn4M-] found
Submit result: unrecognized or virtual drive
Track | CTDB Status
1 | (12/12) Accurately ripped
2 | (12/12) Accurately ripped
3 | (12/12) Accurately ripped
4 | (12/12) Accurately ripped
5 | (12/12) Accurately ripped
6 | (12/12) Accurately ripped
7 | (12/12) Accurately ripped
8 | (12/12) Accurately ripped
9 | (12/12) Accurately ripped
10 | (12/12) Accurately ripped
11 | (12/12) Accurately ripped
12 | (12/12) Accurately ripped
13 | (12/12) Accurately ripped
14 | (12/12) Accurately ripped
15 | (12/12) Accurately ripped
16 | (12/12) Accurately ripped
17 | (12/12) Accurately ripped
18 | (12/12) Accurately ripped
19 | (12/12) Accurately ripped
20 | (12/12) Accurately ripped
21 | (12/12) Accurately ripped
22 | (12/12) Accurately ripped
23 | (12/12) Accurately ripped
24 | (12/12) Accurately ripped
25 | (12/12) Accurately ripped
26 | (12/12) Accurately ripped
27 | (11/12) Accurately ripped
==== Log checksum A1E4A955DD9CFFFD5F0503E302E840494C83AEBA8C2052C155ECD01F8CDFC021 ====

CD2

Exact Audio Copy V1.0 beta 6 from 9. April 2015
EAC extraction logfile from 16. September 2015, 0:47
Mechaly, Ockenden, Decaudaveine - Arts Florissants & Choeur_WDR Capella Coloniensis / Rameau - Zéphyre, Christie
Used drive : HL-DT-STDVDRAM GH22NS50 Adapter: 1 ID: 0
Read mode : Secure
Utilize accurate stream : Yes
Defeat audio cache : Yes
Make use of C2 pointers : No
Read offset correction : 667
Overread into Lead-In and Lead-Out : No
Fill up missing offset samples with silence : Yes
Delete leading and trailing silent blocks : No
Null samples used in CRC calculations : Yes
Used interface : Native Win32 interface for Win NT & 2000
Used output format : Monkey's Audio Lossless Encoder
Selected bitrate : High Lossless Compression
Quality : High
Add ID3 tag : Yes
Command line compressor : C:\Program Files (x86)\Exact Audio Copy\MAC\MAC.exe
TOC of the extracted CD
Track | Start | Length | Start sector | End sector
---------------------------------------------------------
1 | 0:00.00 | 0:25.57 | 0 | 1931
2 | 0:25.57 | 2:15.38 | 1932 | 12094
3 | 2:41.20 | 1:23.05 | 12095 | 18324
4 | 4:04.25 | 1:30.67 | 18325 | 25141
5 | 5:35.17 | 1:48.28 | 25142 | 33269
6 | 7:23.45 | 0:30.35 | 33270 | 35554
7 | 7:54.05 | 2:59.05 | 35555 | 48984
8 | 10:53.10 | 1:20.07 | 48985 | 54991
9 | 12:13.17 | 0:52.20 | 54992 | 58911
10 | 13:05.37 | 1:11.00 | 58912 | 64236
11 | 14:16.37 | 1:24.03 | 64237 | 70539
12 | 15:40.40 | 1:57.07 | 70540 | 79321
13 | 17:37.47 | 2:32.10 | 79322 | 90731
14 | 20:09.57 | 1:57.58 | 90732 | 99564
15 | 22:07.40 | 0:49.60 | 99565 | 103299
16 | 22:57.25 | 5:37.32 | 103300 | 128606
17 | 28:34.57 | 2:38.70 | 128607 | 140526
18 | 31:13.52 | 2:20.35 | 140527 | 151061
19 | 33:34.12 | 1:45.22 | 151062 | 158958
20 | 35:19.34 | 1:15.63 | 158959 | 164646
21 | 36:35.22 | 2:16.12 | 164647 | 174858
22 | 38:51.34 | 1:55.68 | 174859 | 183551
23 | 40:47.27 | 0:45.53 | 183552 | 186979
Range status and errors
Selected range
Filename D:\EAC\Rameau - Zéphyre, Christie.wav
Peak level 88.4 %
Extraction speed 1.6 X
Range quality 100.0 %
Test CRC 1160BB9F
Copy CRC 1160BB9F
Copy OK
No errors occurred
AccurateRip summary
Track 1 accurately ripped (confidence 24) [DBBD3EB6] (AR v2)
Track 2 accurately ripped (confidence 24) [B78535A8] (AR v2)
Track 3 accurately ripped (confidence 24) [74CB84AD] (AR v2)
Track 4 accurately ripped (confidence 23) [D234A3CA] (AR v2)
Track 5 accurately ripped (confidence 24) [A06C447A] (AR v2)
Track 6 accurately ripped (confidence 24) [D5949FBC] (AR v2)
Track 7 accurately ripped (confidence 24) [8A54A306] (AR v2)
Track 8 accurately ripped (confidence 24) [B9A2C4D5] (AR v2)
Track 9 accurately ripped (confidence 24) [20E337B7] (AR v2)
Track 10 accurately ripped (confidence 24) [42A6E3FC] (AR v2)
Track 11 accurately ripped (confidence 24) [A763580E] (AR v2)
Track 12 accurately ripped (confidence 24) [2F62D23E] (AR v2)
Track 13 accurately ripped (confidence 23) [B9BF6647] (AR v2)
Track 14 accurately ripped (confidence 23) [9D4E9AC0] (AR v2)
Track 15 accurately ripped (confidence 24) [8C31CD76] (AR v2)
Track 16 accurately ripped (confidence 24) [A6825A5F] (AR v2)
Track 17 accurately ripped (confidence 24) [E4FA0D1D] (AR v2)
Track 18 accurately ripped (confidence 24) [A83EE78B] (AR v2)
Track 19 accurately ripped (confidence 23) [21846555] (AR v2)
Track 20 accurately ripped (confidence 23) [8CF19572] (AR v2)
Track 21 accurately ripped (confidence 23) [315743B9] (AR v2)
Track 22 accurately ripped (confidence 24) [17A3F9B1] (AR v2)
Track 23 accurately ripped (confidence 24) [34A0D457] (AR v2)
All tracks accurately ripped
End of status report
---- CUETools DB Plugin V2.1.6
[CTDB TOCID: 1D1PCUAK.Kr.Bjn_CrmNI6Jw_ow-] found
Submit result: 1D1PCUAK.Kr.Bjn_CrmNI6Jw_ow- has been confirmed
Track | CTDB Status
1 | (10/10) Accurately ripped
2 | (10/10) Accurately ripped
3 | (10/10) Accurately ripped
4 | (10/10) Accurately ripped
5 | (10/10) Accurately ripped
6 | (10/10) Accurately ripped
7 | (10/10) Accurately ripped
8 | (10/10) Accurately ripped
9 | (10/10) Accurately ripped
10 | (10/10) Accurately ripped
11 | (10/10) Accurately ripped
12 | (10/10) Accurately ripped
13 | (10/10) Accurately ripped
14 | (10/10) Accurately ripped
15 | (10/10) Accurately ripped
16 | (10/10) Accurately ripped
17 | (10/10) Accurately ripped
18 | (10/10) Accurately ripped
19 | (10/10) Accurately ripped
20 | (10/10) Accurately ripped
21 | (10/10) Accurately ripped
22 | (10/10) Accurately ripped
23 | (10/10) Accurately ripped
==== Log checksum AD5A79D738A5420F4C47765E52BF33BB6374CBB377EB3FDFDA800B73C4F7FA27 ====

Содержание индексной карты (.CUE)

CD1

REM GENRE "Baroque Ballet-Opera"
REM DATE 2000
REM DISCID 650C9B1B
REM COMMENT "ExactAudioCopy v1.0b6"
PERFORMER "Daneman, Agnew, Bazula - Arts Florissants & Choeur_WDR Capella Coloniensis"
TITLE "Rameau - La Guirlande, Christie"
FILE "Rameau - La Guirlande, Christie.ape" WAVE
TRACK 01 AUDIO
TITLE "Ritournelle"
PERFORMER "Daneman, Agnew, Bazula - Arts Florissants & Choeur_WDR Capella Coloniensis"
ISRC FRZ200010201
INDEX 01 00:00:00
TRACK 02 AUDIO
TITLE "Peut-on etre à la fois si tendre et si volage?"
PERFORMER "Daneman, Agnew, Bazula - Arts Florissants & Choeur_WDR Capella Coloniensis"
ISRC FRZ200010202
INDEX 01 00:55:22
TRACK 03 AUDIO
TITLE "Ranimez-vous"
PERFORMER "Daneman, Agnew, Bazula - Arts Florissants & Choeur_WDR Capella Coloniensis"
ISRC FRZ200010203
INDEX 01 02:51:20
TRACK 04 AUDIO
TITLE "Toi qui vis mon erreur"
PERFORMER "Daneman, Agnew, Bazula - Arts Florissants & Choeur_WDR Capella Coloniensis"
ISRC FRZ200010204
INDEX 01 05:13:47
TRACK 05 AUDIO
TITLE "Mais j'entends les bergers que ta fete rassemble"
PERFORMER "Daneman, Agnew, Bazula - Arts Florissants & Choeur_WDR Capella Coloniensis"
ISRC FRZ200010205
INDEX 01 06:09:00
TRACK 06 AUDIO
TITLE "Air gracieux"
PERFORMER "Daneman, Agnew, Bazula - Arts Florissants & Choeur_WDR Capella Coloniensis"
ISRC FRZ200010205
INDEX 01 06:42:37
TRACK 07 AUDIO
TITLE "Hatons-nous"
PERFORMER "Daneman, Agnew, Bazula - Arts Florissants & Choeur_WDR Capella Coloniensis"
ISRC FRZ200010207
INDEX 01 08:15:07
TRACK 08 AUDIO
TITLE "Menuets"
PERFORMER "Daneman, Agnew, Bazula - Arts Florissants & Choeur_WDR Capella Coloniensis"
ISRC FRZ200010208
INDEX 01 08:53:35
TRACK 09 AUDIO
TITLE "Zelide, nos plaisirs n'ont-ils rien qui vous amuse?"
PERFORMER "Daneman, Agnew, Bazula - Arts Florissants & Choeur_WDR Capella Coloniensis"
ISRC FRZ200010209
INDEX 01 10:29:72
TRACK 10 AUDIO
TITLE "Tout languit dans nos bois"
PERFORMER "Daneman, Agnew, Bazula - Arts Florissants & Choeur_WDR Capella Coloniensis"
ISRC FRZ200010210
INDEX 01 12:39:05
TRACK 11 AUDIO
TITLE "Que vois-je?"
PERFORMER "Daneman, Agnew, Bazula - Arts Florissants & Choeur_WDR Capella Coloniensis"
ISRC FRZ200010211
INDEX 01 18:50:22
TRACK 12 AUDIO
TITLE "Je vous revois, belle Zelide"
PERFORMER "Daneman, Agnew, Bazula - Arts Florissants & Choeur_WDR Capella Coloniensis"
ISRC FRZ200010212
INDEX 01 20:00:05
TRACK 13 AUDIO
TITLE "Nos bergers de l'Amour vont celebrer la fete"
PERFORMER "Daneman, Agnew, Bazula - Arts Florissants & Choeur_WDR Capella Coloniensis"
ISRC FRZ200010213
INDEX 01 25:43:72
TRACK 14 AUDIO
TITLE "Triomphe, triomphe, Amour"
PERFORMER "Daneman, Agnew, Bazula - Arts Florissants & Choeur_WDR Capella Coloniensis"
ISRC FRZ200010214
INDEX 01 26:03:10
TRACK 15 AUDIO
TITLE "Aimons, aimons"
PERFORMER "Daneman, Agnew, Bazula - Arts Florissants & Choeur_WDR Capella Coloniensis"
ISRC FRZ200010215
INDEX 01 27:13:37
TRACK 16 AUDIO
TITLE "Bergers qui vont offrir leurs guirlandes a l'Amour"
PERFORMER "Daneman, Agnew, Bazula - Arts Florissants & Choeur_WDR Capella Coloniensis"
ISRC FRZ200010216
INDEX 01 28:01:57
TRACK 17 AUDIO
TITLE "Sons brillants"
PERFORMER "Daneman, Agnew, Bazula - Arts Florissants & Choeur_WDR Capella Coloniensis"
ISRC FRZ200010217
INDEX 01 30:06:40
TRACK 18 AUDIO
TITLE "La flute est des soupirs le plus tendre interprete"
PERFORMER "Daneman, Agnew, Bazula - Arts Florissants & Choeur_WDR Capella Coloniensis"
ISRC FRZ200010218
INDEX 01 31:27:30
TRACK 19 AUDIO
TITLE "Air gracieux en rondeau"
PERFORMER "Daneman, Agnew, Bazula - Arts Florissants & Choeur_WDR Capella Coloniensis"
ISRC FRZ200010219
INDEX 01 33:34:57
TRACK 20 AUDIO
TITLE "Entree des Patres"
PERFORMER "Daneman, Agnew, Bazula - Arts Florissants & Choeur_WDR Capella Coloniensis"
ISRC FRZ200010220
INDEX 01 35:42:12
TRACK 21 AUDIO
TITLE "Musette"
PERFORMER "Daneman, Agnew, Bazula - Arts Florissants & Choeur_WDR Capella Coloniensis"
ISRC FRZ200010221
INDEX 01 37:53:22
TRACK 22 AUDIO
TITLE "Gavotte (Rigaudon gai)"
PERFORMER "Daneman, Agnew, Bazula - Arts Florissants & Choeur_WDR Capella Coloniensis"
ISRC FRZ200010222
INDEX 01 38:44:45
TRACK 23 AUDIO
TITLE "Quand du Dieu des bois"
PERFORMER "Daneman, Agnew, Bazula - Arts Florissants & Choeur_WDR Capella Coloniensis"
ISRC FRZ200010222
INDEX 01 39:16:55
TRACK 24 AUDIO
TITLE "Pantomime noble"
PERFORMER "Daneman, Agnew, Bazula - Arts Florissants & Choeur_WDR Capella Coloniensis"
ISRC FRZ200010224
INDEX 01 40:40:05
TRACK 25 AUDIO
TITLE "Air gracieux, tambourins"
PERFORMER "Daneman, Agnew, Bazula - Arts Florissants & Choeur_WDR Capella Coloniensis"
ISRC FRZ200010225
INDEX 01 43:54:30
TRACK 26 AUDIO
TITLE "Vole, Amour"
PERFORMER "Daneman, Agnew, Bazula - Arts Florissants & Choeur_WDR Capella Coloniensis"
ISRC FRZ200010226
INDEX 01 46:43:60
TRACK 27 AUDIO
TITLE "Contredanse"
PERFORMER "Daneman, Agnew, Bazula - Arts Florissants & Choeur_WDR Capella Coloniensis"
ISRC FRZ200010227
INDEX 01 52:43:12

CD2

REM GENRE "Baroque Ballet-Opera"
REM DATE 2000
REM DISCID 4109BD17
REM COMMENT "ExactAudioCopy v1.0b6"
CATALOG 0685738577422
PERFORMER "Mechaly, Ockenden, Decaudaveine - Arts Florissants & Choeur_WDR Capella Colon..."
TITLE "Rameau - Zéphyre, Christie"
FILE "Rameau - Zéphyre, Christie.ape" WAVE
TRACK 01 AUDIO
TITLE "Prelude"
PERFORMER "Mechaly, Ockenden, Decaudaveine - Arts Florissants & Choeur_WDR Capella Colon..."
ISRC FRZ200010101
INDEX 01 00:00:00
TRACK 02 AUDIO
TITLE "Les Nymphes de Diane approchent de ces lieux"
PERFORMER "Mechaly, Ockenden, Decaudaveine - Arts Florissants & Choeur_WDR Capella Colon..."
ISRC FRZ200010102
INDEX 01 00:25:57
TRACK 03 AUDIO
TITLE "On vient; sous cet epais feuillage"
PERFORMER "Mechaly, Ockenden, Decaudaveine - Arts Florissants & Choeur_WDR Capella Colon..."
ISRC FRZ200010103
INDEX 01 02:41:20
TRACK 04 AUDIO
TITLE "Gavottes"
PERFORMER "Mechaly, Ockenden, Decaudaveine - Arts Florissants & Choeur_WDR Capella Colon..."
ISRC FRZ200010104
INDEX 01 04:04:25
TRACK 05 AUDIO
TITLE "O Diane, pourquoi vous separer de nous?"
PERFORMER "Mechaly, Ockenden, Decaudaveine - Arts Florissants & Choeur_WDR Capella Colon..."
ISRC FRZ200010105
INDEX 01 05:35:17
TRACK 06 AUDIO
TITLE "Ou courez-vous, Nymphe charmante?"
PERFORMER "Mechaly, Ockenden, Decaudaveine - Arts Florissants & Choeur_WDR Capella Colon..."
ISRC FRZ200010106
INDEX 01 07:23:45
TRACK 07 AUDIO
TITLE "Ou suis-je?"
PERFORMER "Mechaly, Ockenden, Decaudaveine - Arts Florissants & Choeur_WDR Capella Colon..."
ISRC FRZ200010107
INDEX 01 07:54:05
TRACK 08 AUDIO
TITLE "L'Amour a des appas toujours victorieux"
PERFORMER "Mechaly, Ockenden, Decaudaveine - Arts Florissants & Choeur_WDR Capella Colon..."
ISRC FRZ200010108
INDEX 01 10:53:10
TRACK 09 AUDIO
TITLE "Courons, signalons notre zele!"
PERFORMER "Mechaly, Ockenden, Decaudaveine - Arts Florissants & Choeur_WDR Capella Colon..."
ISRC FRZ200010109
INDEX 01 12:13:17
TRACK 10 AUDIO
TITLE "Air"
PERFORMER "Mechaly, Ockenden, Decaudaveine - Arts Florissants & Choeur_WDR Capella Colon..."
ISRC FRZ200010110
INDEX 01 13:05:37
TRACK 11 AUDIO
TITLE "Passepieds"
PERFORMER "Mechaly, Ockenden, Decaudaveine - Arts Florissants & Choeur_WDR Capella Colon..."
ISRC FRZ200010111
INDEX 01 14:16:37
TRACK 12 AUDIO
TITLE "Que craignez-vous d'un Dieu que l'univers adore?"
PERFORMER "Mechaly, Ockenden, Decaudaveine - Arts Florissants & Choeur_WDR Capella Colon..."
ISRC FRZ200010112
INDEX 01 15:40:40
TRACK 13 AUDIO
TITLE "Air"
PERFORMER "Mechaly, Ockenden, Decaudaveine - Arts Florissants & Choeur_WDR Capella Colon..."
ISRC FRZ200010113
INDEX 01 17:37:47
TRACK 14 AUDIO
TITLE "Menuets"
PERFORMER "Mechaly, Ockenden, Decaudaveine - Arts Florissants & Choeur_WDR Capella Colon..."
ISRC FRZ200010114
INDEX 01 20:09:57
TRACK 15 AUDIO
TITLE "Gavotte"
PERFORMER "Mechaly, Ockenden, Decaudaveine - Arts Florissants & Choeur_WDR Capella Colon..."
ISRC FRZ200010115
INDEX 01 22:07:40
TRACK 16 AUDIO
TITLE "Vous ne devez l'eclat des fleurs"
PERFORMER "Mechaly, Ockenden, Decaudaveine - Arts Florissants & Choeur_WDR Capella Colon..."
ISRC FRZ200010116
INDEX 01 22:57:25
TRACK 17 AUDIO
TITLE "Sarabande - Voyez ces amants heureux"
PERFORMER "Mechaly, Ockenden, Decaudaveine - Arts Florissants & Choeur_WDR Capella Colon..."
ISRC FRZ200010117
INDEX 01 28:34:57
TRACK 18 AUDIO
TITLE "Quels sons! Quelle vive lumiere"
PERFORMER "Mechaly, Ockenden, Decaudaveine - Arts Florissants & Choeur_WDR Capella Colon..."
ISRC FRZ200010118
INDEX 01 31:13:52
TRACK 19 AUDIO
TITLE "Qu'il est doux de suivre"
PERFORMER "Mechaly, Ockenden, Decaudaveine - Arts Florissants & Choeur_WDR Capella Colon..."
ISRC FRZ200010119
INDEX 01 33:34:12
TRACK 20 AUDIO
TITLE "Sarabande"
PERFORMER "Mechaly, Ockenden, Decaudaveine - Arts Florissants & Choeur_WDR Capella Colon..."
ISRC FRZ200010120
INDEX 01 35:19:34
TRACK 21 AUDIO
TITLE "Gavottes"
PERFORMER "Mechaly, Ockenden, Decaudaveine - Arts Florissants & Choeur_WDR Capella Colon..."
ISRC FRZ200010121
INDEX 01 36:35:22
TRACK 22 AUDIO
TITLE "Amour, sois le Dieu de nos ames"
PERFORMER "Mechaly, Ockenden, Decaudaveine - Arts Florissants & Choeur_WDR Capella Colon..."
ISRC FRZ200010122
INDEX 01 38:51:34
TRACK 23 AUDIO
TITLE "Contredanse"
PERFORMER "Mechaly, Ockenden, Decaudaveine - Arts Florissants & Choeur_WDR Capella Colon..."
ISRC FRZ200010123
INDEX 01 40:47:27



Показать сообщения:    

Текущее время: 08-Дек 12:56

Часовой пояс: UTC + 3


Вы не можете начинать темы
Вы не можете отвечать на сообщения
Вы не можете редактировать свои сообщения
Вы не можете удалять свои сообщения
Вы не можете голосовать в опросах
Вы не можете прикреплять файлы к сообщениям
Вы не можете скачивать файлы