(Baroque Serenata) Handel - Acis and Galatea (Baird, Urrey, Price, Deas - Ama Deus Ensemble, Radu) - 2003, APE (image+.cue) lossless


Статистика раздачи [Обновить пиров]
Размер:  401 MB   |    Зарегистрирован:  8 месяцев 20 дней   |    Скачан:  0 раз

Полного источника не было: Никогда

 
   
 
 
 

[Цитировать]

George Frideric Handel - Acis and Galatea
Жанр: Baroque Serenata
Страна-производитель диска: EU
Год издания диска: 2003
Издатель (лейбл): Brilliant Classics
Номер по каталогу: 99777-17/18
Дата записи: 1996
Аудиокодек: APE
Тип рипа: image+.cue
Битрейт аудио: lossless
Продолжительность: 40'07+50'09
Источник: собственный рип
Наличие сканов в содержимом раздачи: да
Треклист:

CD1

1. Act I. Sinfonia
2. Act I. Chorus: Oh, the pleasure
3. Act I. Recitative: Ye verdant plains
4. Act I. Air: Hush, ye pretty
5. Act I. Air: Where shall I seek
6. Act I. Recitative: Stay, shepherd, stay
7. Act I. Air: Shepherd, what
8. Act I. Recitative: Lo, here my love
9. Act I. Air: Love in her eyes
10. Act I. Recitative: O didst thou know
11. Act I. Air: As when the dove
12. Act I. Duet/Chorus: Happy we

CD2

1. Act II. Chorus: Wretched lovers
2. Act II. Accompanied Recitative: I rage
3. Act II. Air: O ruddier
4. Act II. Recitative: Whither, fairest
5. Act II. Air: Cease to beauty
6. Act II. Air: Would you again
7. Act II. Recitative: His hideous love
8. Act II. Air: Love sounds th'alarm
9. Act II. Air: Consider
10. Act II. Recitative: Cease, o cease
11. Act II. Trio: The flocks shall leave
12. Act II. Recitative: Help, Galatea
13. Act II. Chorus: Mourn, all ye muses
14. Act II. Air/Chorus: Must I my Acis
15. Act II. Recitative: Tis done
16. Act II. Air: Heart, the seat
17. Act II. Chorus: Galatea, dry thy tears
Исполнители:
George Frideric Handel - Acis and Galatea
Serenata in 2 Acts
Libretto: John Gay, Alexander Pope and John Hughes
Galatea – Julianne Baird (soprano)
Acis – Frederick Urrey (tenor)
Damon – David Price (tenor)
Polyphemus – Kevin Deas (bass)
Ama Deus Ensemble
Valentin Radu
Recorded 1996

Лог создания рипа

CD1

Exact Audio Copy V1.0 beta 6 from 9. April 2015
EAC extraction logfile from 15. September 2015, 20:38
Baird, Urrey, Price, Deas - Ama Deus Ensemble, Radu / Händel - Acis & Galatea, Radu CD1
Used drive : TSSTcorpCDDVDW SE-208AB Adapter: 1 ID: 2
Read mode : Secure
Utilize accurate stream : Yes
Defeat audio cache : Yes
Make use of C2 pointers : No
Read offset correction : 6
Overread into Lead-In and Lead-Out : No
Fill up missing offset samples with silence : Yes
Delete leading and trailing silent blocks : No
Null samples used in CRC calculations : Yes
Used interface : Native Win32 interface for Win NT & 2000
Used output format : Monkey's Audio Lossless Encoder
Selected bitrate : High Lossless Compression
Quality : High
Add ID3 tag : Yes
Command line compressor : C:\Program Files (x86)\Exact Audio Copy\MAC\MAC.exe
TOC of the extracted CD
Track | Start | Length | Start sector | End sector
---------------------------------------------------------
1 | 0:00.00 | 3:37.37 | 0 | 16311
2 | 3:37.37 | 5:29.05 | 16312 | 40991
3 | 9:06.42 | 0:47.73 | 40992 | 44589
4 | 9:54.40 | 6:21.30 | 44590 | 73194
5 | 16:15.70 | 3:33.42 | 73195 | 89211
6 | 19:49.37 | 0:22.28 | 89212 | 90889
7 | 20:11.65 | 4:37.12 | 90890 | 111676
8 | 24:49.02 | 0:29.43 | 111677 | 113894
9 | 25:18.45 | 6:18.72 | 113895 | 142316
10 | 31:37.42 | 0:13.60 | 142317 | 143351
11 | 31:51.27 | 5:41.50 | 143352 | 168976
12 | 37:33.02 | 2:34.35 | 168977 | 180561
Range status and errors
Selected range
Filename D:\EAC\Händel - Acis & Galatea, Radu CD1.wav
Peak level 100.0 %
Extraction speed 1.7 X
Range quality 100.0 %
Test CRC 61967113
Copy CRC 61967113
Copy OK
No errors occurred
AccurateRip summary
Track 1 accurately ripped (confidence 9) [55E6FB31] (AR v2)
Track 2 accurately ripped (confidence 9) [63A84F1A] (AR v2)
Track 3 accurately ripped (confidence 9) [D95D672F] (AR v2)
Track 4 accurately ripped (confidence 9) [B8F59F29] (AR v2)
Track 5 accurately ripped (confidence 9) [34D18212] (AR v2)
Track 6 accurately ripped (confidence 9) [D87AB9CB] (AR v2)
Track 7 accurately ripped (confidence 9) [427FF0DF] (AR v2)
Track 8 accurately ripped (confidence 9) [02A024CC] (AR v2)
Track 9 accurately ripped (confidence 9) [2A2192F4] (AR v2)
Track 10 accurately ripped (confidence 9) [92CEF7AE] (AR v2)
Track 11 accurately ripped (confidence 9) [62FDACF5] (AR v2)
Track 12 accurately ripped (confidence 9) [6EFB70A7] (AR v2)
All tracks accurately ripped
End of status report
---- CUETools DB Plugin V2.1.6
[CTDB TOCID: tBRixvFVubZJciOMvnWiYNU.E7c-] found
Submit result: tBRixvFVubZJciOMvnWiYNU.E7c- has been confirmed
Track | CTDB Status
1 | (8/8) Accurately ripped
2 | (8/8) Accurately ripped
3 | (8/8) Accurately ripped
4 | (8/8) Accurately ripped
5 | (8/8) Accurately ripped
6 | (8/8) Accurately ripped
7 | (8/8) Accurately ripped
8 | (8/8) Accurately ripped
9 | (8/8) Accurately ripped
10 | (8/8) Accurately ripped
11 | (8/8) Accurately ripped
12 | (8/8) Accurately ripped
==== Log checksum 6746AB1A134B17905596F55AAB4094B819F24CE116D994F8695614E49565D66C ====

CD2

Exact Audio Copy V1.0 beta 6 from 9. April 2015
EAC extraction logfile from 15. September 2015, 20:16
Baird, Urrey, Price, Deas - Ama Deus Ensemble, Radu / Händel - Acis & Galatea, Radu CD2
Used drive : TS8XDVDSTRANSCEND Adapter: 1 ID: 1
Read mode : Secure
Utilize accurate stream : Yes
Defeat audio cache : Yes
Make use of C2 pointers : No
Read offset correction : 6
Overread into Lead-In and Lead-Out : No
Fill up missing offset samples with silence : Yes
Delete leading and trailing silent blocks : No
Null samples used in CRC calculations : Yes
Used interface : Native Win32 interface for Win NT & 2000
Used output format : Monkey's Audio Lossless Encoder
Selected bitrate : High Lossless Compression
Quality : High
Add ID3 tag : Yes
Command line compressor : C:\Program Files (x86)\Exact Audio Copy\MAC\MAC.exe
TOC of the extracted CD
Track | Start | Length | Start sector | End sector
---------------------------------------------------------
1 | 0:00.00 | 4:09.07 | 0 | 18681
2 | 4:09.07 | 1:22.50 | 18682 | 24881
3 | 5:31.57 | 3:07.50 | 24882 | 38956
4 | 8:39.32 | 1:12.50 | 38957 | 44406
5 | 9:52.07 | 5:16.38 | 44407 | 68144
6 | 15:08.45 | 5:03.25 | 68145 | 90894
7 | 20:11.70 | 0:22.45 | 90895 | 92589
8 | 20:34.40 | 4:43.67 | 92590 | 113881
9 | 25:18.32 | 6:02.08 | 113882 | 141039
10 | 31:20.40 | 0:20.60 | 141040 | 142599
11 | 31:41.25 | 2:25.30 | 142600 | 153504
12 | 34:06.55 | 1:00.27 | 153505 | 158031
13 | 35:07.07 | 3:51.73 | 158032 | 175429
14 | 38:59.05 | 4:02.52 | 175430 | 193631
15 | 43:01.57 | 0:21.13 | 193632 | 195219
16 | 43:22.70 | 3:48.45 | 195220 | 212364
17 | 47:11.40 | 2:52.50 | 212365 | 225314
Range status and errors
Selected range
Filename D:\EAC\Händel - Acis & Galatea, Radu CD2.wav
Peak level 100.0 %
Extraction speed 4.2 X
Range quality 100.0 %
Test CRC 5BBC9738
Copy CRC 5BBC9738
Copy OK
No errors occurred
AccurateRip summary
Track 1 accurately ripped (confidence 9) [C8AD1A99] (AR v2)
Track 2 accurately ripped (confidence 9) [7B7F1450] (AR v2)
Track 3 accurately ripped (confidence 9) [0FD9B62A] (AR v2)
Track 4 accurately ripped (confidence 9) [EBCD1168] (AR v2)
Track 5 accurately ripped (confidence 9) [F4D737D7] (AR v2)
Track 6 accurately ripped (confidence 9) [E87293C5] (AR v2)
Track 7 accurately ripped (confidence 9) [52211EBB] (AR v2)
Track 8 accurately ripped (confidence 9) [CD864926] (AR v2)
Track 9 accurately ripped (confidence 9) [B8F6F905] (AR v2)
Track 10 accurately ripped (confidence 9) [C19A1979] (AR v2)
Track 11 accurately ripped (confidence 9) [05CCFDC2] (AR v2)
Track 12 accurately ripped (confidence 9) [C7157066] (AR v2)
Track 13 accurately ripped (confidence 9) [5ADAD940] (AR v2)
Track 14 accurately ripped (confidence 9) [7057E1C7] (AR v2)
Track 15 accurately ripped (confidence 9) [0A876C5A] (AR v2)
Track 16 accurately ripped (confidence 9) [E793D587] (AR v2)
Track 17 accurately ripped (confidence 9) [5889E54F] (AR v2)
All tracks accurately ripped
End of status report
---- CUETools DB Plugin V2.1.6
[CTDB TOCID: 3MkCkt4iCgCX3TnFcI5n43bmGkA-] found
Submit result: unrecognized or virtual drive
Track | CTDB Status
1 | (7/7) Accurately ripped
2 | (7/7) Accurately ripped
3 | (7/7) Accurately ripped
4 | (7/7) Accurately ripped
5 | (7/7) Accurately ripped
6 | (7/7) Accurately ripped
7 | (7/7) Accurately ripped
8 | (7/7) Accurately ripped
9 | (7/7) Accurately ripped
10 | (7/7) Accurately ripped
11 | (7/7) Accurately ripped
12 | (7/7) Accurately ripped
13 | (7/7) Accurately ripped
14 | (7/7) Accurately ripped
15 | (7/7) Accurately ripped
16 | (7/7) Accurately ripped
17 | (7/7) Accurately ripped
==== Log checksum 290A8E693CB98B8049E09C697EDA4DAB0FEABAD03DBD8CF98166723DA1D85986 ====

Содержание индексной карты (.CUE)

CD1

REM GENRE Opera
REM DATE 1996
REM DISCID AB09670C
REM COMMENT "ExactAudioCopy v1.0b6"
PERFORMER "Baird, Urrey, Price, Deas - Ama Deus Ensemble, Radu"
TITLE "Händel - Acis & Galatea, Radu CD1"
FILE "Händel - Acis & Galatea, Radu CD1.ape" WAVE
TRACK 01 AUDIO
TITLE "Acis & Galatea: Act I. Sinfonia"
PERFORMER "Baird, Urrey, Price, Deas - Ama Deus Ensemble, Radu"
INDEX 01 00:00:00
TRACK 02 AUDIO
TITLE "Acis & Galatea: Act I. Chorus: Oh, the pleasure"
PERFORMER "Baird, Urrey, Price, Deas - Ama Deus Ensemble, Radu"
INDEX 01 03:37:37
TRACK 03 AUDIO
TITLE "Acis & Galatea: Act I. Recitative: Ye verdant plains"
PERFORMER "Baird, Urrey, Price, Deas - Ama Deus Ensemble, Radu"
INDEX 01 09:06:42
TRACK 04 AUDIO
TITLE "Acis & Galatea: Act I. Air: Hush, ye pretty"
PERFORMER "Baird, Urrey, Price, Deas - Ama Deus Ensemble, Radu"
INDEX 01 09:54:40
TRACK 05 AUDIO
TITLE "Acis & Galatea: Act I. Air: Where shall I seek"
PERFORMER "Baird, Urrey, Price, Deas - Ama Deus Ensemble, Radu"
INDEX 01 16:15:70
TRACK 06 AUDIO
TITLE "Acis & Galatea: Act I. Recitative: Stay, shepherd, stay"
PERFORMER "Baird, Urrey, Price, Deas - Ama Deus Ensemble, Radu"
INDEX 01 19:49:37
TRACK 07 AUDIO
TITLE "Acis & Galatea: Act I. Air: Shepherd, what"
PERFORMER "Baird, Urrey, Price, Deas - Ama Deus Ensemble, Radu"
INDEX 01 20:11:65
TRACK 08 AUDIO
TITLE "Acis & Galatea: Act I. Recitative: Lo, here my love"
PERFORMER "Baird, Urrey, Price, Deas - Ama Deus Ensemble, Radu"
INDEX 01 24:49:02
TRACK 09 AUDIO
TITLE "Acis & Galatea: Act I. Air: Love in her eyes"
PERFORMER "Baird, Urrey, Price, Deas - Ama Deus Ensemble, Radu"
INDEX 01 25:18:45
TRACK 10 AUDIO
TITLE "Acis & Galatea: Act I. Recitative: O didst thou know"
PERFORMER "Baird, Urrey, Price, Deas - Ama Deus Ensemble, Radu"
INDEX 01 31:37:42
TRACK 11 AUDIO
TITLE "Acis & Galatea: Act I. Air: As when the dove"
PERFORMER "Baird, Urrey, Price, Deas - Ama Deus Ensemble, Radu"
INDEX 01 31:51:27
TRACK 12 AUDIO
TITLE "Acis & Galatea: Act I. Duet/Chorus: Happy we"
PERFORMER "Baird, Urrey, Price, Deas - Ama Deus Ensemble, Radu"
INDEX 01 37:33:02

CD2

REM GENRE Opera
REM DATE 1996
REM DISCID C40BBC11
REM COMMENT "ExactAudioCopy v1.0b6"
PERFORMER "Baird, Urrey, Price, Deas - Ama Deus Ensemble, Radu"
TITLE "Händel - Acis & Galatea, Radu CD2"
FILE "Händel - Acis & Galatea, Radu CD2.ape" WAVE
TRACK 01 AUDIO
TITLE "Acis & Galatea: Act II. Chorus: Wretched lovers"
PERFORMER "Baird, Urrey, Price, Deas - Ama Deus Ensemble, Radu"
INDEX 01 00:00:00
TRACK 02 AUDIO
TITLE "Acis & Galatea: Act II. Accompanied Recitative: I rage"
PERFORMER "Baird, Urrey, Price, Deas - Ama Deus Ensemble, Radu"
INDEX 01 04:09:07
TRACK 03 AUDIO
TITLE "Acis & Galatea: Act II. Air: O ruddier"
PERFORMER "Baird, Urrey, Price, Deas - Ama Deus Ensemble, Radu"
INDEX 01 05:31:57
TRACK 04 AUDIO
TITLE "Acis & Galatea: Act II. Recitative: Whither, fairest"
PERFORMER "Baird, Urrey, Price, Deas - Ama Deus Ensemble, Radu"
INDEX 01 08:39:32
TRACK 05 AUDIO
TITLE "Acis & Galatea: Act II. Air: Cease to beauty"
PERFORMER "Baird, Urrey, Price, Deas - Ama Deus Ensemble, Radu"
INDEX 01 09:52:07
TRACK 06 AUDIO
TITLE "Acis & Galatea: Act II. Air: Would you again"
PERFORMER "Baird, Urrey, Price, Deas - Ama Deus Ensemble, Radu"
INDEX 01 15:08:45
TRACK 07 AUDIO
TITLE "Acis & Galatea: Act II. Recitative: His hideous love"
PERFORMER "Baird, Urrey, Price, Deas - Ama Deus Ensemble, Radu"
INDEX 01 20:11:70
TRACK 08 AUDIO
TITLE "Acis & Galatea: Act II. Air: Love sounds th'alarm"
PERFORMER "Baird, Urrey, Price, Deas - Ama Deus Ensemble, Radu"
INDEX 01 20:34:40
TRACK 09 AUDIO
TITLE "Acis & Galatea: Act II. Air: Consider"
PERFORMER "Baird, Urrey, Price, Deas - Ama Deus Ensemble, Radu"
INDEX 01 25:18:32
TRACK 10 AUDIO
TITLE "Acis & Galatea: Act II. Recitative: Cease, o cease"
PERFORMER "Baird, Urrey, Price, Deas - Ama Deus Ensemble, Radu"
INDEX 01 31:20:40
TRACK 11 AUDIO
TITLE "Acis & Galatea: Act II. Trio: The flocks shall leave"
PERFORMER "Baird, Urrey, Price, Deas - Ama Deus Ensemble, Radu"
INDEX 01 31:41:25
TRACK 12 AUDIO
TITLE "Acis & Galatea: Act II. Recitative: Help, Galatea"
PERFORMER "Baird, Urrey, Price, Deas - Ama Deus Ensemble, Radu"
INDEX 01 34:06:55
TRACK 13 AUDIO
TITLE "Acis & Galatea: Act II. Chorus: Mourn, all ye muses"
PERFORMER "Baird, Urrey, Price, Deas - Ama Deus Ensemble, Radu"
INDEX 01 35:07:07
TRACK 14 AUDIO
TITLE "Acis & Galatea: Act II. Air/Chorus: Must I my Acis"
PERFORMER "Baird, Urrey, Price, Deas - Ama Deus Ensemble, Radu"
INDEX 01 38:59:05
TRACK 15 AUDIO
TITLE "Acis & Galatea: Act II. Recitative: Tis done"
PERFORMER "Baird, Urrey, Price, Deas - Ama Deus Ensemble, Radu"
INDEX 01 43:01:57
TRACK 16 AUDIO
TITLE "Acis & Galatea: Act II. Air: Heart, the seat"
PERFORMER "Baird, Urrey, Price, Deas - Ama Deus Ensemble, Radu"
INDEX 01 43:22:70
TRACK 17 AUDIO
TITLE "Acis & Galatea: Act II. Chorus: Galatea, dry thy tears"
PERFORMER "Baird, Urrey, Price, Deas - Ama Deus Ensemble, Radu"
INDEX 01 47:11:40
Доп. информация:
The original version of ‘Acis and Galatea’ was written for just five singers and a small instrumental ensemble. It was written for the Earl of Carnarvon (later the Duke of Chandos) for performance at his establishment. We know precious little about the origins of this work. Dating from 1718, both ‘Acis and Galatea’ and the oratorio ‘Esther’ (also written for the Duke of Chandos for similarly small forces) would become important in the development of English oratorio. But at the time of writing they were just occasional works and no-one recorded much about their genesis. The libretto for ‘Acis and Galatea’ is at least partly attributable to John Gay http://teatrix.ru/viewtopic.php?t=8212 who was a member of a group of writers associated with the Duke of Chandos and the Earl of Burlington.
Later on, Handel would re-work ‘Acis and Galatea’ as a serenata for performance in London. These later versions were generally bilingual and often included material from his earlier Italian cantata, ‘Aci, Galatea e Polifemo’. The present recording uses the original 1718 version, which is arguably the most satisfactory of Handel’s versions of this piece. There is much to be said for the intimacy of a small-scale performance, with one player to a part and a chorus made up of the principals, especially when the performers show a keen feeling for Handel’s style. Unfortunately, on this recording the piece is given by rather larger forces. Though the performance gains in power and dramatics, it loses severely in terms of Handelian style and feeling.
Julianne Baird, as Galatea, sings in a beautiful shapely manner and her distinctive plangent tones are apt for the part. From the first moment she opens her mouth you know that it will end in tears. Her way with recitative is equally as attractive and her horrified dialogue with Polyphemus in Act 2 is a high point of the performance.
As Acis, Frederick Urrey has an attractive tenor voice.
Polyphemus is, to some extent, a pantomime villain but he must appear to be in love and Handel gives him a fine opening aria, ‘O ruddier than the Cherry’ sung by Kevin Deas.
[teatrix.ru].t22278.torrent 
Торрент: Зарегистрирован [ 2016-03-20 12:39 ] · 2465A5F6805ED049BFDB725181D7D5AF8EACA5F7

Скачать .torrent

Скачать

17 KB

Статус: проверено
Скачан: 0 раз
Размер: 401 MB
terms.php



Быстрый ответ

Имя:

      
Для отправки сообщений необходимо включить JavaScript
Показать сообщения:    

Текущее время: 09-Дек 20:32

Часовой пояс: UTC + 3


Вы можете начинать темы
Вы можете отвечать на сообщения
Вы не можете редактировать свои сообщения
Вы не можете удалять свои сообщения
Вы не можете голосовать в опросах
Вы не можете прикреплять файлы к сообщениям
Вы можете скачивать файлы