Перемотай это! / Rewind This! (Джош Джонсон / Josh Johnson) [2013, документальный, HDRip] (rus, eng sub)


Статистика раздачи [Обновить пиров]
Размер:  1.4 GB   |    Зарегистрирован:  8 месяцев 15 дней   |    Скачан:  0 раз

Полного источника не было: Никогда

 
   
 
 
 

[Цитировать]

Перемотай это! / Rewind This!
Производство: США, 2013
Жанр: документальный
Продолжительность: 01:30:19
Перевод: Субтитры (Павел Жуков aka Bugman, при участии Киномэна)
Режиссер: Джош Джонсон / Josh Johnson
Описание: Бурно развивающаяся индустрия без правил! Безумие, выпускаемое прямиком на видео! VHS против Beta! В 1980-х видеокассета изменила мир и заложила фундамент современной медиакультуры. «Перемотай это!» прослеживает за взлётом и падением формата VHS с момента его расцвета как основного домашнего видеоформата до текущего статуса – ностальгической реликвии и трофея коллекционеров, до сих пор им дорожащих. Фильм включает интервью с кинематографистами и приверженцами эры VHS, среди которых легенда студии «Трома» Ллойд Кауфман, инди-режиссёр Атом Эгоян и создатель «Бомжа с дробовиком» Джейсон Айзнер. «Перемотай это!» – исчерпывающая история формата, ставшего синонимом домашней видеореволюции.
Качество/формат: HDRip (UNiQUE), MKV
Видео: AVC, 1991 Kbps, 720x400, 23.976 fps, 8 bits
Аудио: AC3, 224 Kbps, 48 KHz, 2 channels
Субтитры: русские (в формате ASS), английские (в формате SRT)

MediaInfo

General
Unique ID : 225144822836487932725332982863322469925 (0xA96150CBFA54FB64AD399D1A5854D625)
Complete name : E:\movies\[torrents]\rewind this! (2013) [hdrip, eng] {rus, eng}.mkv
Format : Matroska
Format version : Version 4 / Version 2
File size : 1.40 GiB
Duration : 1h 30mn
Overall bit rate mode : Variable
Overall bit rate : 2 217 Kbps
Encoded date : UTC 2015-09-17 17:33:27
Writing application : mkvmerge v7.2.0 ('On Every Street') 32bit built on Sep 13 2014 15:42:11
Writing library : libebml v1.3.0 + libmatroska v1.4.1
DURATION : 01:27:35.560000000
NUMBER_OF_FRAMES : 1903
NUMBER_OF_BYTES : 186209
_STATISTICS_WRITING_APP : mkvmerge v7.2.0 ('On Every Street') 32bit built on Sep 13 2014 15:42:11
_STATISTICS_WRITING_DATE_UTC : 2015-09-17 17:33:27
_STATISTICS_TAGS : BPS DURATION NUMBER_OF_FRAMES NUMBER_OF_BYTES
Video
ID : 1
Format : AVC
Format/Info : Advanced Video Codec
Format profile : High@L4.1
Format settings, CABAC : Yes
Format settings, ReFrames : 3 frames
Codec ID : V_MPEG4/ISO/AVC
Duration : 1h 30mn
Bit rate mode : Variable
Bit rate : 1 991 Kbps
Maximum bit rate : 40.0 Mbps
Width : 720 pixels
Height : 400 pixels
Display aspect ratio : 16:9
Frame rate mode : Constant
Frame rate : 23.976 fps
Color space : YUV
Chroma subsampling : 4:2:0
Bit depth : 8 bits
Scan type : Progressive
Bits/(Pixel*Frame) : 0.288
Stream size : 1.23 GiB (88%)
Writing library : x264 core 138 r2358 9e941d1
Encoding settings : cabac=1 / ref=4 / deblock=1:-1:-1 / analyse=0x3:0x113 / me=hex / subme=7 / psy=1 / psy_rd=1.00:0.15 / mixed_ref=1 / me_range=16 / chroma_me=1 / trellis=1 / 8x8dct=1 / cqm=0 / deadzone=21,11 / fast_pskip=1 / chroma_qp_offset=-3 / threads=6 / lookahead_threads=1 / sliced_threads=0 / slices=4 / nr=0 / decimate=1 / interlaced=0 / bluray_compat=0 / constrained_intra=0 / bframes=3 / b_pyramid=1 / b_adapt=1 / b_bias=0 / direct=1 / weightb=1 / open_gop=0 / weightp=0 / keyint=23 / keyint_min=1 / scenecut=40 / intra_refresh=0 / rc_lookahead=23 / rc=2pass / mbtree=1 / bitrate=1991 / ratetol=1.0 / qcomp=0.60 / qpmin=10 / qpmax=51 / qpstep=4 / cplxblur=20.0 / qblur=0.5 / vbv_maxrate=40000 / vbv_bufsize=30000 / nal_hrd=vbr / ip_ratio=1.40 / aq=1:1.00
Default : Yes
Forced : No
Color primaries : BT.709
Transfer characteristics : BT.709
Matrix coefficients : BT.709
Audio
ID : 2
Format : AC-3
Format/Info : Audio Coding 3
Mode extension : CM (complete main)
Format settings, Endianness : Big
Codec ID : A_AC3
Duration : 1h 30mn
Bit rate mode : Constant
Bit rate : 224 Kbps
Channel(s) : 2 channels
Channel positions : Front: L R
Sampling rate : 48.0 KHz
Bit depth : 16 bits
Compression mode : Lossy
Stream size : 145 MiB (10%)
Language : English
Default : Yes
Forced : No
Text #1
ID : 3
Format : ASS
Codec ID : S_TEXT/ASS
Codec ID/Info : Advanced Sub Station Alpha
Compression mode : Lossless
Language : Russian
Default : Yes
Forced : No
Text #2
ID : 4
Format : UTF-8
Codec ID : S_TEXT/UTF8
Codec ID/Info : UTF-8 Plain Text
Language : English
Default : No
Forced : No
Menu
00:00:00.000 : en:Chapter 1
00:13:52.000 : en:Chapter 2
00:29:15.000 : en:Chapter 3
00:41:04.000 : en:Chapter 4
00:52:05.000 : en:Chapter 5
01:00:36.000 : en:Chapter 6
01:11:29.000 : en:Chapter 7
01:27:50.000 : en:Chapter 8

Скриншоты

[teatrix.ru].t22282.torrent 
Торрент: Зарегистрирован [ 2016-03-20 12:38 ] · CF94F5A52864D892155D618B210857C3366268FB

Скачать .torrent

Скачать

14 KB

Статус: проверено
Скачан: 0 раз
Размер: 1.4 GB
terms.php



Показать сообщения:    

Текущее время: 05-Дек 03:30

Часовой пояс: UTC + 3


Вы не можете начинать темы
Вы не можете отвечать на сообщения
Вы не можете редактировать свои сообщения
Вы не можете удалять свои сообщения
Вы не можете голосовать в опросах
Вы не можете прикреплять файлы к сообщениям
Вы можете скачивать файлы