Шарль Гуно - Фауст (Йонас Кауфманн) / Charles Gounod - Faust (Kaufmann, Pape, Poplavskaya) (Yannick Nezet-Seguin / Des McAnuff) [2011, Opera, BDRip-AVC 720p] Sub [Русские][Eng, Fre, Ger, Chi, Kor.] (bonus • Elena-Rybka)


 

[Цитировать]

-Метрополитан Опера представляет
ШАРЛЬ Франсуа Г У Н О
17 июня (June, 17) 1818 — 17 октября (October, 17) 1893
»«Ф А У С Т»«
Либретто Жюля Барбье и Мишеля Карре по мотивам одноимённой трагедии Гёте
-- РЕЖИССЁР Дес МакАНУФФ Des McAnuff
Год записи: 2011
Год выхода: 2014
Язык: Французский
Субтитры/Subtitles: РУССКИЕ,
English, French, German, Korean, Chinese
Продолжительность: 192 min.
ФАУСТ Йонас КАУФМАНН Jonas Kaufmann
МЕФИСТОФЕЛЬ Рене ПАПЕ René Pape
МАРГАРИТА Марина ПОПЛАВСКАЯ Marina Poplavskaya
ВАЛЕНТИН Рассел БРАУН Russell Braun
ЗИБЕЛЬ Мишель ЛОЗЬЕ Michèle Losier
МАРТА Венди УАЙТ Wendy White
ВАГНЕР Джонатан БЕЙЕР Jonathan Beyer
ХОР и ОРКЕСТР театра Метрополитан Опера
ДИРИЖЁР Янник НЕЗЕ-СЕГЕН Yannick Nézet-Séguin

Качество видео: BDRip-AVC Исходник
♫ Sample ♫
Формат/Контейнер: MKV
Видео поток: H.264 1280x720, 4000 kbps, 29,970 fps.
Аудио поток:
#1 Français, FLAC 1536 kbps, 48,0 KHz, 16 bit, 2 ch
#2 Français, AC3 640 kbps, 48,0 KHz, 16 bit, 6 ch
Aудио DTS 1509 kbps, 24/48 (original) отдельно на Яндексе
Дополнительно: Интервью с солистами и дирижёром
Перевод: Elena-Rybka

Скриншоты

MediaInfoPart1

-

x264.log


avs [info]: 1280x720p 1:1 @ 30000/1001 fps (cfr)
x264 [info]: using SAR=1/1
x264 [info]: using cpu capabilities: MMX2 SSE2Fast LZCNT
x264 [info]: profile High, level 4.1
x264 [info]: frame I:598 Avg QP:15.18 size: 86270
x264 [info]: frame P:63337 Avg QP:17.06 size: 21236
x264 [info]: frame B:39500 Avg QP:19.44 size: 8341
x264 [info]: consecutive B-frames: 32.7% 46.6% 8.0% 12.8%
x264 [info]: mb I I16..4: 9.9% 68.0% 22.1%
x264 [info]: mb P I16..4: 0.4% 1.9% 0.5% P16..4: 46.8% 23.1% 13.3% 0.0% 0.0% skip:13.9%
x264 [info]: mb B I16..4: 0.0% 0.1% 0.0% B16..8: 47.4% 7.7% 1.6% direct: 3.1% skip:40.0% L0:42.2% L1:48.5% BI: 9.3%
x264 [info]: 8x8 transform intra:68.4% inter:75.2%
x264 [info]: direct mvs spatial:73.6% temporal:26.4%
x264 [info]: coded y,uvDC,uvAC intra: 74.8% 68.4% 44.0% inter: 27.2% 25.4% 1.9%
x264 [info]: i16 v,h,dc,p: 48% 15% 17% 20%
x264 [info]: i8 v,h,dc,ddl,ddr,vr,hd,vl,hu: 11% 5% 10% 10% 13% 15% 11% 13% 11%
x264 [info]: i4 v,h,dc,ddl,ddr,vr,hd,vl,hu: 15% 5% 4% 9% 14% 16% 12% 13% 11%
x264 [info]: i8c dc,h,v,p: 44% 23% 22% 11%
x264 [info]: Weighted P-Frames: Y:1.0% UV:0.2%
x264 [info]: ref P L0: 55.4% 7.5% 24.2% 12.9% 0.1%
x264 [info]: ref B L0: 73.9% 24.3% 1.8%
x264 [info]: ref B L1: 96.2% 3.8%
x264 [info]: kb/s:4001.05
-
General
Unique ID : 219292380362181979878047660165698327045 (0xA4FA2D1AE3A93A1CA579C6776A3A9205)
Complete name : Gounod - Faust (Kaufmann) 2011\Faust (Kaufmann) Part1.mkv
Format : Matroska
Format version : Version 4 / Version 2
File size : 2.15 GiB
Duration : 57mn 31s
Overall bit rate mode : Variable
Overall bit rate : 5 358 Kbps
Encoded date : UTC 2015-09-15 16:52:21
Writing application : mkvmerge v8.3.0 ('Over the Horizon') 32bit
Writing library : libebml v1.3.1 + libmatroska v1.4.2
Video
ID : 1
Format : AVC
Format/Info : Advanced Video Codec
Format profile : High@L4.1
Format settings, CABAC : Yes
Format settings, ReFrames : 4 frames
Codec ID : V_MPEG4/ISO/AVC
Duration : 57mn 31s
Nominal bit rate : 4 000 Kbps
Width : 1 280 pixels
Height : 720 pixels
Display aspect ratio : 16:9
Frame rate mode : Constant
Frame rate : 29.970 fps
Color space : YUV
Chroma subsampling : 4:2:0
Bit depth : 8 bits
Scan type : Progressive
Bits/(Pixel*Frame) : 0.145
Writing library : x264 core 146 r2538 121396c
Encoding settings : cabac=1 / ref=3 / deblock=1:0:0 / analyse=0x3:0x113 / me=umh / subme=9 / psy=1 / psy_rd=1.00:0.00 / mixed_ref=1 / me_range=32 / chroma_me=1 / trellis=1 / 8x8dct=1 / cqm=0 / deadzone=21,11 / fast_pskip=1 / chroma_qp_offset=-2 / threads=4 / lookahead_threads=1 / sliced_threads=0 / nr=0 / decimate=1 / interlaced=0 / bluray_compat=0 / constrained_intra=0 / bframes=3 / b_pyramid=2 / b_adapt=1 / b_bias=0 / direct=3 / weightb=1 / open_gop=0 / weightp=2 / keyint=300 / keyint_min=29 / scenecut=40 / intra_refresh=0 / rc_lookahead=60 / rc=2pass / mbtree=1 / bitrate=4000 / ratetol=1.0 / qcomp=0.60 / qpmin=10 / qpmax=51 / qpstep=4 / cplxblur=20.0 / qblur=0.5 / vbv_maxrate=50000 / vbv_bufsize=62500 / nal_hrd=none / filler=0 / ip_ratio=1.40 / aq=1:1.00
Language : English
Default : Yes
Forced : No
Audio #1
ID : 2
Format : AC-3
Format/Info : Audio Coding 3
Mode extension : CM (complete main)
Format settings, Endianness : Big
Codec ID : A_AC3
Duration : 57mn 31s
Bit rate mode : Constant
Bit rate : 640 Kbps
Channel(s) : 6 channels
Channel positions : Front: L C R, Side: L R, LFE
Sampling rate : 48.0 KHz
Compression mode : Lossy
Stream size : 263 MiB (12%)
Language : French
Default : No
Forced : No
Audio #2
ID : 3
Format : FLAC
Format/Info : Free Lossless Audio Codec
Codec ID : A_FLAC
Duration : 57mn 31s
Bit rate mode : Variable
Channel(s) : 2 channels
Sampling rate : 48.0 KHz
Bit depth : 16 bits
Writing library : libFLAC 1.2.1 (UTC 2007-09-17)
Language : French
Default : Yes
Forced : No
Text #1
ID : 4
Format : UTF-8
Codec ID : S_TEXT/UTF8
Codec ID/Info : UTF-8 Plain Text
Language : Russian
Default : Yes
Forced : No
Text #2
ID : 5
Format : UTF-8
Codec ID : S_TEXT/UTF8
Codec ID/Info : UTF-8 Plain Text
Language : English
Default : No
Forced : No
Text #3
ID : 6
Format : UTF-8
Codec ID : S_TEXT/UTF8
Codec ID/Info : UTF-8 Plain Text
Language : French
Default : No
Forced : No
Text #4
ID : 7
Format : UTF-8
Codec ID : S_TEXT/UTF8
Codec ID/Info : UTF-8 Plain Text
Language : German
Default : No
Forced : No
Text #5
ID : 8
Format : VobSub
Muxing mode : zlib
Codec ID : S_VOBSUB
Codec ID/Info : Picture based subtitle format used on DVDs
Language : Chinese
Default : No
Forced : No
Text #6
ID : 9
Format : VobSub
Muxing mode : zlib
Codec ID : S_VOBSUB
Codec ID/Info : Picture based subtitle format used on DVDs
Language : Korean
Default : No
Forced : No

Part2

-

x264.log


avs [info]: 1280x720p 1:1 @ 30000/1001 fps (cfr)
x264 [info]: using SAR=1/1
x264 [info]: using cpu capabilities: MMX2 SSE2Fast LZCNT
x264 [info]: profile High, level 4.1
x264 [info]: frame I:546 Avg QP:14.79 size: 70212
x264 [info]: frame P:90096 Avg QP:16.76 size: 17680
x264 [info]: frame B:13773 Avg QP:18.20 size: 8068
x264 [info]: consecutive B-frames: 75.3% 20.7% 2.1% 2.0%
x264 [info]: mb I I16..4: 11.5% 69.8% 18.7%
x264 [info]: mb P I16..4: 0.3% 1.0% 0.1% P16..4: 50.7% 22.5% 12.5% 0.0% 0.0% skip:12.9%
x264 [info]: mb B I16..4: 0.0% 0.1% 0.0% B16..8: 48.3% 7.4% 1.1% direct: 2.5% skip:40.6% L0:45.5% L1:48.6% BI: 5.9%
x264 [info]: 8x8 transform intra:69.5% inter:78.4%
x264 [info]: direct mvs spatial:85.3% temporal:14.7%
x264 [info]: coded y,uvDC,uvAC intra: 67.1% 56.6% 36.7% inter: 28.3% 27.3% 1.9%
x264 [info]: i16 v,h,dc,p: 47% 18% 20% 16%
x264 [info]: i8 v,h,dc,ddl,ddr,vr,hd,vl,hu: 8% 4% 12% 12% 14% 14% 12% 12% 12%
x264 [info]: i4 v,h,dc,ddl,ddr,vr,hd,vl,hu: 11% 6% 8% 11% 15% 14% 12% 12% 12%
x264 [info]: i8c dc,h,v,p: 47% 28% 17% 8%
x264 [info]: Weighted P-Frames: Y:0.7% UV:0.1%
x264 [info]: ref P L0: 52.9% 5.2% 26.5% 15.3% 0.1%
x264 [info]: ref B L0: 65.2% 33.0% 1.8%
x264 [info]: ref B L1: 97.1% 2.9%
x264 [info]: kb/s:4000.78
-
General
Unique ID : 200568079823723621446619118952965742614 (0x96E401D021844192BED5184846942016)
Complete name : Gounod - Faust (Kaufmann) 2011\Faust (Kaufmann) Part2.mkv
Format : Matroska
Format version : Version 4 / Version 2
File size : 2.15 GiB
Duration : 58mn 3s
Overall bit rate mode : Variable
Overall bit rate : 5 292 Kbps
Encoded date : UTC 2015-09-15 11:05:33
Writing application : mkvmerge v8.3.0 ('Over the Horizon') 32bit
Writing library : libebml v1.3.1 + libmatroska v1.4.2
Video
ID : 1
Format : AVC
Format/Info : Advanced Video Codec
Format profile : High@L4.1
Format settings, CABAC : Yes
Format settings, ReFrames : 4 frames
Codec ID : V_MPEG4/ISO/AVC
Duration : 58mn 3s
Nominal bit rate : 4 000 Kbps
Width : 1 280 pixels
Height : 720 pixels
Display aspect ratio : 16:9
Frame rate mode : Constant
Frame rate : 29.970 fps
Color space : YUV
Chroma subsampling : 4:2:0
Bit depth : 8 bits
Scan type : Progressive
Bits/(Pixel*Frame) : 0.145
Writing library : x264 core 146 r2538 121396c
Encoding settings : cabac=1 / ref=3 / deblock=1:0:0 / analyse=0x3:0x113 / me=umh / subme=9 / psy=1 / psy_rd=1.00:0.00 / mixed_ref=1 / me_range=32 / chroma_me=1 / trellis=1 / 8x8dct=1 / cqm=0 / deadzone=21,11 / fast_pskip=1 / chroma_qp_offset=-2 / threads=4 / lookahead_threads=1 / sliced_threads=0 / nr=0 / decimate=1 / interlaced=0 / bluray_compat=0 / constrained_intra=0 / bframes=3 / b_pyramid=2 / b_adapt=1 / b_bias=0 / direct=3 / weightb=1 / open_gop=0 / weightp=2 / keyint=300 / keyint_min=29 / scenecut=40 / intra_refresh=0 / rc_lookahead=60 / rc=2pass / mbtree=1 / bitrate=4000 / ratetol=1.0 / qcomp=0.60 / qpmin=10 / qpmax=51 / qpstep=4 / cplxblur=20.0 / qblur=0.5 / vbv_maxrate=50000 / vbv_bufsize=62500 / nal_hrd=none / filler=0 / ip_ratio=1.40 / aq=1:1.00
Language : English
Default : Yes
Forced : No
Audio #1
ID : 2
Format : AC-3
Format/Info : Audio Coding 3
Mode extension : CM (complete main)
Format settings, Endianness : Big
Codec ID : A_AC3
Duration : 58mn 3s
Bit rate mode : Constant
Bit rate : 640 Kbps
Channel(s) : 6 channels
Channel positions : Front: L C R, Side: L R, LFE
Sampling rate : 48.0 KHz
Compression mode : Lossy
Stream size : 266 MiB (12%)
Language : French
Default : No
Forced : No
Audio #2
ID : 3
Format : FLAC
Format/Info : Free Lossless Audio Codec
Codec ID : A_FLAC
Duration : 58mn 3s
Bit rate mode : Variable
Channel(s) : 2 channels
Sampling rate : 48.0 KHz
Bit depth : 16 bits
Writing library : libFLAC 1.2.1 (UTC 2007-09-17)
Language : French
Default : Yes
Forced : No
Text #1
ID : 4
Format : UTF-8
Codec ID : S_TEXT/UTF8
Codec ID/Info : UTF-8 Plain Text
Language : Russian
Default : Yes
Forced : No
Text #2
ID : 5
Format : UTF-8
Codec ID : S_TEXT/UTF8
Codec ID/Info : UTF-8 Plain Text
Language : English
Default : No
Forced : No
Text #3
ID : 6
Format : UTF-8
Codec ID : S_TEXT/UTF8
Codec ID/Info : UTF-8 Plain Text
Language : French
Default : No
Forced : No
Text #4
ID : 7
Format : UTF-8
Codec ID : S_TEXT/UTF8
Codec ID/Info : UTF-8 Plain Text
Language : German
Default : No
Forced : No
Text #5
ID : 8
Format : VobSub
Muxing mode : zlib
Codec ID : S_VOBSUB
Codec ID/Info : Picture based subtitle format used on DVDs
Language : Chinese
Default : No
Forced : No
Text #6
ID : 9
Format : VobSub
Muxing mode : zlib
Codec ID : S_VOBSUB
Codec ID/Info : Picture based subtitle format used on DVDs
Language : Korean
Default : No
Forced : No

Part3

-

x264.log


avs [info]: 1280x720p 1:1 @ 30000/1001 fps (cfr)
x264 [info]: using SAR=1/1
x264 [info]: using cpu capabilities: MMX2 SSE2Fast LZCNT
x264 [info]: profile High, level 4.1
x264 [info]: frame I:772 Avg QP:14.88 size: 78310
x264 [info]: frame P:98805 Avg QP:16.91 size: 19120
x264 [info]: frame B:35003 Avg QP:19.11 size: 8460
x264 [info]: consecutive B-frames: 54.5% 31.2% 3.8% 10.5%
x264 [info]: mb I I16..4: 11.6% 67.0% 21.3%
x264 [info]: mb P I16..4: 0.5% 1.3% 0.3% P16..4: 48.6% 21.9% 12.9% 0.0% 0.0% skip:14.6%
x264 [info]: mb B I16..4: 0.0% 0.1% 0.0% B16..8: 47.6% 7.7% 1.4% direct: 3.0% skip:40.1% L0:42.8% L1:48.7% BI: 8.5%
x264 [info]: 8x8 transform intra:64.5% inter:76.3%
x264 [info]: direct mvs spatial:81.8% temporal:18.2%
x264 [info]: coded y,uvDC,uvAC intra: 64.0% 59.5% 38.1% inter: 27.8% 25.4% 2.1%
x264 [info]: i16 v,h,dc,p: 54% 13% 16% 17%
x264 [info]: i8 v,h,dc,ddl,ddr,vr,hd,vl,hu: 9% 5% 14% 11% 13% 14% 11% 12% 11%
x264 [info]: i4 v,h,dc,ddl,ddr,vr,hd,vl,hu: 18% 5% 8% 10% 13% 14% 11% 11% 11%
x264 [info]: i8c dc,h,v,p: 46% 24% 21% 9%
x264 [info]: Weighted P-Frames: Y:0.7% UV:0.1%
x264 [info]: ref P L0: 54.5% 6.1% 25.3% 14.0% 0.1%
x264 [info]: ref B L0: 73.3% 24.7% 2.1%
x264 [info]: ref B L1: 95.9% 4.1%
x264 [info]: kb/s:4000.89
-
General
Unique ID : 250108909817709779068021917028887876710 (0xBC2939500ACF21E19F75855D65D4D466)
Complete name : Gounod - Faust (Kaufmann) 2011\Faust (Kaufmann) Part3.mkv
Format : Matroska
Format version : Version 4 / Version 2
File size : 2.80 GiB
Duration : 1h 14mn
Overall bit rate mode : Variable
Overall bit rate : 5 350 Kbps
Encoded date : UTC 2015-09-15 12:16:44
Writing application : mkvmerge v8.3.0 ('Over the Horizon') 32bit
Writing library : libebml v1.3.1 + libmatroska v1.4.2
Video
ID : 1
Format : AVC
Format/Info : Advanced Video Codec
Format profile : High@L4.1
Format settings, CABAC : Yes
Format settings, ReFrames : 4 frames
Codec ID : V_MPEG4/ISO/AVC
Duration : 1h 14mn
Nominal bit rate : 4 000 Kbps
Width : 1 280 pixels
Height : 720 pixels
Display aspect ratio : 16:9
Frame rate mode : Constant
Frame rate : 29.970 fps
Color space : YUV
Chroma subsampling : 4:2:0
Bit depth : 8 bits
Scan type : Progressive
Bits/(Pixel*Frame) : 0.145
Writing library : x264 core 146 r2538 121396c
Encoding settings : cabac=1 / ref=3 / deblock=1:0:0 / analyse=0x3:0x113 / me=umh / subme=9 / psy=1 / psy_rd=1.00:0.00 / mixed_ref=1 / me_range=32 / chroma_me=1 / trellis=1 / 8x8dct=1 / cqm=0 / deadzone=21,11 / fast_pskip=1 / chroma_qp_offset=-2 / threads=4 / lookahead_threads=1 / sliced_threads=0 / nr=0 / decimate=1 / interlaced=0 / bluray_compat=0 / constrained_intra=0 / bframes=3 / b_pyramid=2 / b_adapt=1 / b_bias=0 / direct=3 / weightb=1 / open_gop=0 / weightp=2 / keyint=300 / keyint_min=29 / scenecut=40 / intra_refresh=0 / rc_lookahead=60 / rc=2pass / mbtree=1 / bitrate=4000 / ratetol=1.0 / qcomp=0.60 / qpmin=10 / qpmax=51 / qpstep=4 / cplxblur=20.0 / qblur=0.5 / vbv_maxrate=50000 / vbv_bufsize=62500 / nal_hrd=none / filler=0 / ip_ratio=1.40 / aq=1:1.00
Language : English
Default : Yes
Forced : No
Audio #1
ID : 2
Format : AC-3
Format/Info : Audio Coding 3
Mode extension : CM (complete main)
Format settings, Endianness : Big
Codec ID : A_AC3
Duration : 1h 14mn
Bit rate mode : Constant
Bit rate : 640 Kbps
Channel(s) : 6 channels
Channel positions : Front: L C R, Side: L R, LFE
Sampling rate : 48.0 KHz
Compression mode : Lossy
Stream size : 343 MiB (12%)
Language : French
Default : No
Forced : No
Audio #2
ID : 3
Format : FLAC
Format/Info : Free Lossless Audio Codec
Codec ID : A_FLAC
Duration : 1h 14mn
Bit rate mode : Variable
Channel(s) : 2 channels
Sampling rate : 48.0 KHz
Bit depth : 16 bits
Writing library : libFLAC 1.2.1 (UTC 2007-09-17)
Language : French
Default : Yes
Forced : No
Text #1
ID : 4
Format : UTF-8
Codec ID : S_TEXT/UTF8
Codec ID/Info : UTF-8 Plain Text
Language : Russian
Default : Yes
Forced : No
Text #2
ID : 5
Format : UTF-8
Codec ID : S_TEXT/UTF8
Codec ID/Info : UTF-8 Plain Text
Language : English
Default : No
Forced : No
Text #3
ID : 6
Format : UTF-8
Codec ID : S_TEXT/UTF8
Codec ID/Info : UTF-8 Plain Text
Language : French
Default : No
Forced : No
Text #4
ID : 7
Format : UTF-8
Codec ID : S_TEXT/UTF8
Codec ID/Info : UTF-8 Plain Text
Language : German
Default : No
Forced : No
Text #5
ID : 8
Format : VobSub
Muxing mode : zlib
Codec ID : S_VOBSUB
Codec ID/Info : Picture based subtitle format used on DVDs
Language : Chinese
Default : No
Forced : No
Text #6
ID : 9
Format : VobSub
Muxing mode : zlib
Codec ID : S_VOBSUB
Codec ID/Info : Picture based subtitle format used on DVDs
Language : Korean
Default : No
Forced : No
***
"Всем милость там найдётся и с неба благодать просящему даётся.
Все будем уповать!.."



Показать сообщения:    

Текущее время: 04-Дек 19:22

Часовой пояс: UTC + 3


Вы не можете начинать темы
Вы не можете отвечать на сообщения
Вы не можете редактировать свои сообщения
Вы не можете удалять свои сообщения
Вы не можете голосовать в опросах
Вы не можете прикреплять файлы к сообщениям
Вы не можете скачивать файлы