[TR24][SM][OF] Franz Schubert - Fantasie D-Dur · Rondo h-Moll · Sonate A-Dur - Carolin Widmann & Alexander Lonquich - 2012 [ECM New Series] (Classical)


Статистика раздачи [Обновить пиров]
Размер:  566 MB   |    Зарегистрирован:  8 месяцев 18 дней   |    Скачан:  0 раз

Полного источника не было: Никогда

 
   
 
 
 

[Цитировать]

·
·
·
·

Franz Schubert (1797-1828)Жанр: Chamber Music
Носитель: Official Digital Download
Дата записи: October 2010
Издатель(лейбл): © ECM Records GmbH
Продолжительность: 01:01:56
Наличие сканов в содержимом раздачи: artwork
Контейнер: FLAC (*.flac)
Разрядность: 24/44,1
Формат: tracks
Количество каналов: 2.0
Источник: qobuz.com
Pелизер: WEB (thanks to the original customer)

New Series
2223

Треклист

Fantasie C-Durop. posth. 195 D 934 (1827)
01 Andante Molto 3:35
02 Allegretto 5:33
03 Andantino 10:20
04 Tempo I 1:14
05 Allegro vivace - Allegretto - Presto 4:20
Rondo h-Moll op. 70 D 895 (1826)
06 Andante 3:27
07 Allegro 11:31
Sonate A-Dur op. posth. 162 D 574 (1817)
08 Allegro moderato 9:20
09 Scherzo 3:56
10 Andantino 3:46
11 Allegro vivace 4:57

Исполнители

·
·
·
·
·
Carolin Widmannviolin
Alexander Lonquich piano

Dynamic Range Meter

foobar2000 1.2.6 / Dynamic Range Meter 1.1.1
log date: 2015-09-18 19:41:48
--------------------------------------------------------------------------------
Analyzed: Carolin Widmann, Alexander Lonquich / Franz Schubert: Fantasie D-Dur / Rondo h-Moll / Sonate A-Dur
--------------------------------------------------------------------------------
DR Peak RMS Duration Track
--------------------------------------------------------------------------------
DR13 -12.55 dB -28.97 dB 3:36 01-Fantasie C-Dur op.posth. 195 / D 934: Andante molto
DR13 -0.77 dB -19.52 dB 5:33 02-Fantasie C-Dur op.posth. 195 / D 934: Allegretto
DR16 -0.31 dB -22.29 dB 10:21 03-Fantasie C-Dur op.posth. 195 / D 934: Andantino
DR11 -4.17 dB -21.62 dB 1:15 04-Fantasie C-Dur op.posth. 195 / D 934: Tempo I
DR14 -0.10 dB -18.28 dB 4:30 05-Fantasie C-Dur op.posth. 195 / D 934: Allegro vivace - Allegretto - Presto
DR14 -0.03 dB -19.57 dB 3:28 06-Rondo h-Moll op. 70 / D 895 : Andante
DR14 -0.01 dB -17.80 dB 11:41 07-Rondo h-Moll op. 70 / D 896: Allegro
DR15 -3.27 dB -23.87 dB 9:20 08-Sonate A-Dur op.posth. 162 / D 574: Allegro moderato
DR15 -0.03 dB -20.55 dB 3:56 09-Sonate A-Dur op.posth. 162 / D 574: Scherzo
DR15 -2.57 dB -24.54 dB 3:47 10-Sonate A-Dur op.posth. 162 / D 574: Andantino
DR16 -0.98 dB -21.42 dB 4:58 11-Sonate A-Dur op.posth. 162 / D 574: Allegro vivace
--------------------------------------------------------------------------------
Number of tracks: 11
Official DR value: DR14
Samplerate: 44100 Hz
Channels: 2
Bits per sample: 24
Bitrate: 1255 kbps
Codec: FLAC
================================================================================
[teatrix.ru].t22285.torrent 
Торрент: Зарегистрирован [ 2016-03-20 12:38 ] · A659DDF24884E7932C15B7BB96522043FB7D0E2B

Скачать .torrent

Скачать

13 KB

Статус: проверено
Скачан: 0 раз
Размер: 566 MB
terms.php



Быстрый ответ

Имя:

      
Для отправки сообщений необходимо включить JavaScript
Показать сообщения:    

Текущее время: 08-Дек 09:00

Часовой пояс: UTC + 3


Вы можете начинать темы
Вы можете отвечать на сообщения
Вы не можете редактировать свои сообщения
Вы не можете удалять свои сообщения
Вы не можете голосовать в опросах
Вы не можете прикреплять файлы к сообщениям
Вы можете скачивать файлы