(Medieval, Andalusi) Alfonso X el Sabio (1221-1284): Caballeros / Musica Antigua, dir. Eduardo Paniagua - 2003, WavPack (image+.cue) lossless


 

[Цитировать]

Caballeros
Alfonso X el Sabio (1221-1284)
Eduardo Paniagua
Жанр: Medieval, Andalusí
Страна-производитель диска: Spain
Год издания диска: 2003
Издатель (лейбл): Pneuma
Номер по каталогу: PN-490
Дата записи: December 1996 & January 1997
Аудиокодек: WavPack
Тип рипа: image+.cue
Битрейт аудио: lossless
Продолжительность: 71:06
Источник: собственный рип
Наличие сканов в содержимом раздачи: да

Треклист

I. Honor, amor, veganza y conversión
01. CSM-158 Caballero preso (Instrumental) [3:18]
Psalterio, citolón, dutar, vihuela, chorus, laúd, viola, ajabeba, fhal, cántara y címbalos
02. CSM-207 La venganza del caballero (Se ome fezer de grado) [3:09]
Contratenor, tenor y coro - tromba marina, ajabeba y flauta tenor
03. CSM-195 El torneo (Quena festa e o dia) [11:07]
Tenor, sopranos 1 y 2, contratenor y bajo - añafiles 1 y 2, sacabuche, tambor 1, 2 y 3,
kaval, ajabeba, chalumeau, psalterio, santúr, laúd, bandurria, viola, panderete, tar y címbalos

04. CSM-233 Caballeros de otro mundo (Os que bõa morte morren) [11:08]
Sopranos 1 y 2, contratenor, tenor y bajo - santúr, canno (psalterio cuadrado),
chorus, viola, flauta tenor, ajabeba, cántara y címbalos

05. CSM-341 Caballero celoso (Com’ á gran pesar a Virgen) [7:27]
Bajo, tenor, soprano 2 y coro - cítola, bandurria, laúd, fhal, kaval, sacabuche, pandero,
sistro de cuerno y sistro de aros de madera

06. CSM-152 La escudilla de plata (Tantas nos mostra a Virgen) [8:46]
Contratenor, soprano 2 y 1 y coro - flauta tenor, ajabeba,
viola de brazo, viola de teclas, tromba marina, cántara y panderete

II. Caza, celestinescas y proteccion de Santa María
07. CSM-216 Pacto con el demonio (Instrumental) [2:40]
Zanfona, flauta pastoril, panderos y pandera
08. CSM-232 El azor perdido (En toda-las grandes coitas) [5:36]
Tenor - dutar, laúd, kaval, gaita, darbuga, panderete y tar
09. CSM-363 Caballero trovador (En bon ponto vimos esta Sennor que loamos) [5:14]
Sopranos 1 y 2 y coro - zanfona, viola, psalterio, darbuga, panderete y cascabeles
10. CSM-22 El labrador de Armenteira (Mui gran poder á a Madre de Deus) [4:31]
Bajo, tenor y coro - psalterio, vihuela, zanfona, gaita charra, darbuga y tar
11. CSM-64 Los zapatos de cordobán (Quen muí ben quiser) [8:10]
Tenor, soprano 1 y coro - citolón, vihuela, psalterio, chorus, ajabeba, flauta alto y darbuga
CSM = Cantiga de Santa María (Numeración W. Mettmann)

Исполнители

MÚSICA ANTIGUA
Dirección: Eduardo Paniagua
Paula Vega: soprano 1 y coro
Patricia Paz: soprano 2 y coro
Luis Vincent: contratenor, coro y canno
Cesar Carazo: tenor, coro y viola de brazo
Germán Torrellas: bajo y coro
Wafir Sheik: laúd
Rafael Martín: zanfona
Marta Arias: sacabuche
Felipe Sánchez: vihuela de péñola y bandurria medieval
Jaime Muñoz: ajabeba en do y en fa, kaval y chalumeau (caramillo)
Enrique Almendros: gaita charra (flauta de tres agujeros), gaita en sol, chorus (dulcimer) y tambor
Luis Delgado: cítola, citolón, dutar (laúd de dos cuerdas), santúr, viola de teclas, tromba marina, añafil (trompeta recta), cántara, tambor, panderete, pandera y sistro de aros de madera
Eduardo Paniagua: psalterio, tromba marina, añafil, flautas a bisel tenor y alto, fahl (flauta metálica árabe), flauta pastoril, darbuga, tambor, panderete, tar, sistro de cuerno, címbalos y cascabeles

log EAC

Exact Audio Copy V0.99 prebeta 5 from 4. May 2009
Отчёт EAC об извлечении, выполненном 5. августа 2015, 18:49
Eduardo Paniagua / Alfonso X el Sabio: Caballeros
Дисковод: PIONEER DVD-RW DVR-219L Adapter: 1 ID: 1
Режим чтения : Достоверность
Использование точного потока : Да
Отключение кэша аудио : Да
Использование указателей C2 : Нет
Коррекция смещения при чтении : 6
Способность читать области Lead-in и Lead-out : Нет
Заполнение пропущенных сэмплов тишиной : Да
Удаление блоков с тишиной в начале и конце : Нет
При вычислениях CRC использовались нулевые сэмплы : Да
Интерфейс : Встроенный Win32-интерфейс для Win NT/2000
Выходной формат : Внутренние WAV-операции
Формат сэмплов : 44.100 Гц; 16 бит; стерео
TOC извлечённого CD
Трек | Старт | Длительность | Начальный сектор | Конечный сектор
---------------------------------------------------------------------
1 | 0:00.00 | 3:17.44 | 0 | 14818
2 | 3:17.44 | 3:09.31 | 14819 | 29024
3 | 6:27.00 | 11:06.63 | 29025 | 79037
4 | 17:33.63 | 11:08.21 | 79038 | 129158
5 | 28:42.09 | 7:26.58 | 129159 | 162666
6 | 36:08.67 | 8:45.43 | 162667 | 202084
7 | 44:54.35 | 2:40.09 | 202085 | 214093
8 | 47:34.44 | 5:35.70 | 214094 | 239288
9 | 53:10.39 | 5:14.02 | 239289 | 262840
10 | 58:24.41 | 4:31.37 | 262841 | 283202
11 | 62:56.03 | 8:09.41 | 283203 | 319918
Характеристики диапазона извлечения и сообщения об ошибках
Выбранный диапазон
Имя файла C:\Documents and Settings\Agni\Мои документы\EAC\Eduardo Paniagua - Alfonso X el Sabio - Caballeros.wav
Пиковый уровень 100.0 %
Качество диапазона 100.0 %
CRC теста 1DF20746
CRC копии 1DF20746
Копирование... OK
Ошибок не произошло
AccurateRip: сводка
Трек 1 точность не определена (достоверность 1) [09ADDD1D], AccurateRip вернул [8DE29AE1]
Трек 2 точность не определена (достоверность 1) [992210E2], AccurateRip вернул [07992DFD]
Трек 3 точность не определена (достоверность 1) [B19FA9EE], AccurateRip вернул [C4A8D133]
Трек 4 точность не определена (достоверность 1) [8302481A], AccurateRip вернул [345D4B64]
Трек 5 точность не определена (достоверность 1) [54B7E528], AccurateRip вернул [35DD2E04]
Трек 6 точность не определена (достоверность 1) [0ED29C23], AccurateRip вернул [89255A11]
Трек 7 точность не определена (достоверность 1) [02EB7DCB], AccurateRip вернул [02212BDF]
Трек 8 точность не определена (достоверность 1) [D9C60DD4], AccurateRip вернул [281A5F34]
Трек 9 точность не определена (достоверность 1) [DC72EBAF], AccurateRip вернул [5E262C50]
Трек 10 точность не определена (достоверность 1) [F2AD4A65], AccurateRip вернул [109A4D42]
Трек 11 точность не определена (достоверность 1) [0C5DEA5D], AccurateRip вернул [AD226CFA]
Ни один трек не прошёл проверки на точность
В вашей базе может быть иной вариант штамповки диска
Конец отчёта



Показать сообщения:    

Текущее время: 10-Дек 19:43

Часовой пояс: UTC + 3


Вы не можете начинать темы
Вы не можете отвечать на сообщения
Вы не можете редактировать свои сообщения
Вы не можете удалять свои сообщения
Вы не можете голосовать в опросах
Вы не можете прикреплять файлы к сообщениям
Вы не можете скачивать файлы