(Medieval, Andalusi) El Camino de Santiago en las Cantigas de Alfonso X el Sabio (1221-1284) / Musica Antigua, dir. Eduardo Paniagua - 2004, WavPack (image+.cue) lossless


 

[Цитировать]

El Camino de Santiagoen las Cantigas de Alfonso X el Sabio (1221-1284)
Eduardo Paniagua
Жанр: Medieval, Andalusí
Страна-производитель диска: Spain
Год издания диска: 2004
Издатель (лейбл): Pneuma
Номер по каталогу: PN-680
Дата записи: May-June 2004
Аудиокодек: WavPack
Тип рипа: image+.cue
Битрейт аудио: lossless
Продолжительность: 74:30
Источник: собственный рип
Наличие сканов в содержимом раздачи: да

Треклист

1. CSM-77 Santa María de Lugo (Instrumental) [2:51]
Zanfona, salterio, flautas, darbuga, dumbek, pandereta, semillas, uñas y sonajero
2. CSM-26 El Romero de Santiago «Non é gran cousa» [8:38]
Canto 3 y coro, zanfona, 2 flautas, salterio, daf, conchas de Santiago, darbuga y tar
3. CSM-313 Peligro en la Mar «Ali u todo los santos» [12:34]
Canto 1 y coro, zanfona, 3 flautas, salterio, pandero, gongs y cascabeles
4. CSM-268 Dona de Francia en Vila-Sirga «Gran confiança na Madre» [6:35]
Canto 2 y coro, zanfona, 2 flautas pastoriles, flauta, panderos, darbuga, qaraquebs y gong
5. CSM-218 El Ciego de Alemania «Razon an de seeren» [9:17]
Canto 3, 2 y coro, zanfona, 3 flautas, salterio y zarb
6. CSM-175 El Peregrino Ahorcado «Por dereito ten a Virgen» [15:13]
Canto 2 y coro, zanfona, salterio, 2 flautas, palmas, pandereta, darbuga y dumbek
7. CSM-278 Los Peregrinos Ciegos «Como sofre mui gran coita» [6:52]
Canto 3 y coro, zanfona, salterio percutido, 2 flautas, daf, palmas, crótalos y platillos
8. CSM-253 El Bordón de Hierro «De grad' á Santa María» [12:30]
Canto y coro, zanfona, salterio, 3 flautas, 2 cántaras y gong
CSM = Cantiga de Santa María (Numeración W. Mettmann)

Исполнители

MÚSICA ANTIGUA
Director: Eduardo Paniagua
Henar Alvarez: canto 1
Cesar Carazo: canto 2
Luis Antonio Muñoz: canto 3
Jota Martínez: zanfona
Alfonso Tomas: flauta dulce
Alejandro León: flauta dulce
David Mayoral: percusión (darbuga, dumbek, daf, zarb, pandero, pandereta y cántaras)
Eduardo Paniagua: salterio, flautas y percusión (gongs, palmas, conchas de Santiago, darbuga, tar, crótalos, platillos, cascabeles, semillas, uñas y sonajero)
colaboración en CSM-268, Luis Delgado: pandero y darbuga

log EAC

Exact Audio Copy V0.99 prebeta 5 from 4. May 2009
Отчёт EAC об извлечении, выполненном 5. августа 2015, 21:09
Eduardo Paniagua / El Camino de Santiago en las Cantigas de Alfonso X el Sabio (1221-1284)
Дисковод: PIONEER DVD-RW DVR-219L Adapter: 1 ID: 1
Режим чтения : Достоверность
Использование точного потока : Да
Отключение кэша аудио : Да
Использование указателей C2 : Нет
Коррекция смещения при чтении : 6
Способность читать области Lead-in и Lead-out : Нет
Заполнение пропущенных сэмплов тишиной : Да
Удаление блоков с тишиной в начале и конце : Нет
При вычислениях CRC использовались нулевые сэмплы : Да
Интерфейс : Встроенный Win32-интерфейс для Win NT/2000
Выходной формат : Внутренние WAV-операции
Формат сэмплов : 44.100 Гц; 16 бит; стерео
TOC извлечённого CD
Трек | Старт | Длительность | Начальный сектор | Конечный сектор
---------------------------------------------------------------------
1 | 0:00.00 | 2:51.26 | 0 | 12850
2 | 2:51.26 | 8:38.19 | 12851 | 51719
3 | 11:29.45 | 12:34.28 | 51720 | 108297
4 | 24:03.73 | 6:34.39 | 108298 | 137886
5 | 30:38.37 | 9:16.61 | 137887 | 179647
6 | 39:55.23 | 15:12.48 | 179648 | 248095
7 | 55:07.71 | 6:52.35 | 248096 | 279030
8 | 62:00.31 | 12:29.42 | 279031 | 335247
Характеристики диапазона извлечения и сообщения об ошибках
Выбранный диапазон
Имя файла C:\Documents and Settings\Agni\Мои документы\EAC\Eduardo Paniagua - El Camino de Santiago.wav
Пиковый уровень 93.0 %
Качество диапазона 100.0 %
CRC теста 6E0AECED
CRC копии 6E0AECED
Копирование... OK
Ошибок не произошло
AccurateRip: сводка
Трек 1 точное извлечение (доверие 2) [AED26A4E]
Трек 2 точное извлечение (доверие 2) [8FDC839F]
Трек 3 точное извлечение (доверие 2) [707D1F95]
Трек 4 точное извлечение (доверие 2) [D9702EDA]
Трек 5 точное извлечение (доверие 2) [9D58040A]
Трек 6 точное извлечение (доверие 2) [BE32A3E5]
Трек 7 точное извлечение (доверие 2) [79BCA367]
Трек 8 точное извлечение (доверие 2) [0590212C]
Все треки извлечены точно
Конец отчёта



Показать сообщения:    

Текущее время: 05-Дек 15:33

Часовой пояс: UTC + 3


Вы не можете начинать темы
Вы не можете отвечать на сообщения
Вы не можете редактировать свои сообщения
Вы не можете удалять свои сообщения
Вы не можете голосовать в опросах
Вы не можете прикреплять файлы к сообщениям
Вы не можете скачивать файлы