(Medieval, Andalusi) Alfonso X el Sabio (1221-1284): Rosa de las Rosas / Musica Antigua, dir. Eduardo Paniagua - 2004, WavPack (image+.cue) lossless


 

[Цитировать]

Rosa de las RosasCantigas de Santa María
Alfonso X el Sabio (1221-1284)
Eduardo Paniagua
Жанр: Medieval, Andalusí
Страна-производитель диска: Spain
Год издания диска: 2004
Издатель (лейбл): Pneuma
Номер по каталогу: PN-700
Дата записи: 2004
Аудиокодек: WavPack
Тип рипа: image+.cue
Битрейт аудио: lossless
Продолжительность: 79:43
Источник: собственный рип
Наличие сканов в содержимом раздачи: да

Треклист

01. CSM-371 La Mujer Náufraga (Tantos vay Santa Maria) [7:36]
02. CSM-412 «Alva dos Alvores» (Virgen Madre groriosa) [9:25]
03. CSM-41 «A Virgen Madre de Nostro Sennor» [6:24]
04. CSM-233 Caballeros de Otro Mundo (Os que bõa morte morren) [11:07]
05. CSM-376 El Anillo de Don Manuel (A Virgen, cuja merçee) [11:16]
06. CSM-358 Cantos Labrados (A que as cousas coitadas) [5:43]
07. CSM-18 Los Gusanos de Seda (Por nos de dulta tirar) [7:12]
08. CSM-97 La Calumnia de Mateo (A Virgen sempr’ acorrer) [6:42]
09. CSM-111 El Clérigo Ahogado (En todo tempo faz ben) [5:12]
10. CSM-12 Los Judios de Toledo (O que a Santa Maria) [9:07]
CSM = Cantiga de Santa María (Numeración W. Mettmann)

Исполнители

MÚSICA ANTIGUA
Director: Eduardo Paniagua
María Luz Álvarez: soprano y coro
Paula Vega: soprano y coro
Patricia Paz: soprano y coro
Clara Serrano: soprano y coro
Luis Vincent: contratenor, coro y canno
César Carazo: tenor, coro y viola de brazo
Germán Torrellas: bajo y coro
Pedro Alarraga: coro
Luis Antonio Muñoz: coro
David Cabrera: coro
Emilio Gómez: coro
Pedro Llarena: coro
Emilio Rubio: coro
Enrique de la Fuente: coro
Laurentino Saenz de Buruaga: coro
Jaime Muñoz: ajabeba y flauta doble
Enrique Almendros: flauta de tres agujeros y tambor, chorus (dulcimer), gaita y arpa
Begoña Olavide: psalterio
Wafir Sheik: laúd
Luis Paniagua: viola oriental
Manuel Pascual: corneta
Luis Delgado: panderos, laúd, tromba marina, viola de teclas, citolón, santúr, cántara, tambor con tensores y pandereta
Eduardo Paniagua: cítara, psalterio, dulcimér, santúr, flautas a bisel, palmeado sobre agua, pandero, címbalos, campanil

log EAC

Exact Audio Copy V0.99 prebeta 5 from 4. May 2009
Отчёт EAC об извлечении, выполненном 6. августа 2015, 11:32
Eduardo Paniagua / Alfonso X el Sabio: Rosa de las rosas
Дисковод: PIONEER DVD-RW DVR-219L Adapter: 1 ID: 1
Режим чтения : Достоверность
Использование точного потока : Да
Отключение кэша аудио : Да
Использование указателей C2 : Нет
Коррекция смещения при чтении : 6
Способность читать области Lead-in и Lead-out : Нет
Заполнение пропущенных сэмплов тишиной : Да
Удаление блоков с тишиной в начале и конце : Нет
При вычислениях CRC использовались нулевые сэмплы : Да
Интерфейс : Встроенный Win32-интерфейс для Win NT/2000
Выходной формат : Внутренние WAV-операции
Формат сэмплов : 44.100 Гц; 16 бит; стерео
TOC извлечённого CD
Трек | Старт | Длительность | Начальный сектор | Конечный сектор
---------------------------------------------------------------------
1 | 0:00.00 | 7:36.12 | 0 | 34211
2 | 7:36.12 | 9:24.60 | 34212 | 76571
3 | 17:00.72 | 6:24.04 | 76572 | 105375
4 | 23:25.01 | 11:07.18 | 105376 | 155418
5 | 34:32.19 | 11:15.69 | 155419 | 206112
6 | 45:48.13 | 5:42.69 | 206113 | 231831
7 | 51:31.07 | 7:11.45 | 231832 | 264201
8 | 58:42.52 | 6:41.73 | 264202 | 294349
9 | 65:24.50 | 5:12.13 | 294350 | 317762
10 | 70:36.63 | 9:06.48 | 317763 | 358760
Характеристики диапазона извлечения и сообщения об ошибках
Выбранный диапазон
Имя файла C:\Documents and Settings\Agni\Мои документы\EAC\Eduardo Paniagua - Rosa de las rosas.wav
Пиковый уровень 100.0 %
Качество диапазона 100.0 %
CRC теста BD137605
CRC копии BD137605
Копирование... OK
Ошибок не произошло
AccurateRip: сводка
Трек 1 нет в базе данных
Трек 2 нет в базе данных
Трек 3 нет в базе данных
Трек 4 нет в базе данных
Трек 5 нет в базе данных
Трек 6 нет в базе данных
Трек 7 нет в базе данных
Трек 8 нет в базе данных
Трек 9 нет в базе данных
Трек 10 нет в базе данных
Ни одного трека нет в базе AccurateRip
Конец отчёта



Показать сообщения:    

Текущее время: 25-Янв 00:22

Часовой пояс: UTC + 3


Вы не можете начинать темы
Вы не можете отвечать на сообщения
Вы не можете редактировать свои сообщения
Вы не можете удалять свои сообщения
Вы не можете голосовать в опросах
Вы не можете прикреплять файлы к сообщениям
Вы не можете скачивать файлы