Вдали от обезумевшей толпы / Far from the Madding Crowd (Томас Винтерберг / Thomas Vinterberg) [2015 г., Великобритания, США, драма, мелодрама, BDRip] Dub + Ukr + Original Eng + Sub (Rus, Ukr, Eng)


 

[Цитировать]

-Вдали от обезумевшей толпы / Far from the Madding Crowd Страна: Великобритания, США
Студия: BBC Films, DNA Films, Fox Searchlight Pictures
Жанр: драма, мелодрама
Год выпуска: 2015
Продолжительность: 01:58:40-Перевод: Профессиональный (полное дублирование) BD EUR
Оригинальная аудиодорожка: английская
Cубтитры: русские, украинские, английские
Режиссер: Томас Винтерберг / Thomas Vinterberg
В ролях: Кэри Маллиган, Маттиас Шонартс, Майкл Шин, Джуно Темпл, Том Стёрридж, Тилли Восберг, Марк Уингетт, Дориан Лок, Сэм Филлипс, Брэдли Холл
Описание: Унаследовав от дядюшки богатую ферму, юная Батшеба Эвердин энергично берется за дело, набрав себе рабочих. Берет она и разорившегося фермера Габриэля Оука — человека опытного и честного. Габриэль в свое время просил её руки, но потерпел неудачу. Теперь ей предлагает руку и сердце сосед, зажиточный фермер Уильям Болдвуд, но своенравная Батшеба пока не соглашается стать женой, попросив себе время на раздумья. Встреча с самовлюбленным красавцем сержантом Фрэнком Троем становится роковой для Батшебы…-
Сэмпл: скачать-Релиз от -
Автор рипа: Elheym
Качество: BDRip (источник: / Blu-ray EUR [FAR_FROM_MADDING_CROWD_BD_EUR] / 1080p)
Контейнер: AVI
Видео: 720x304 (2.37:1), 23.976 fps, XviD build 67 ~1730 kbps avg, 0.33 bit/pixel
Аудио #1: Русский: AC3, 5.1, 48 kHz, ~448 Кбит/с | Профессиональный (полное дублирование), BD EUR |
Аудио #2: Английский: AC3, 5.1, 48 kHz, ~448 Кбит/с | Оригинал |
Аудио #3: Украинский: AC3, 5.1, 48 kHz, ~448 Кбит/с | Профессиональный (полное дублирование) BD EUR | (отдельно, в составе раздачи)
Субтитры: русские (полные: BD, iTunes; форсированные), украинские (полные: BD, iTunes), английские (полные, SDH, SDH цветные)
Размер: 2234.71 Mb (1/2 DVD)

MediaInfo

Полное имя : Vdali.ot.obezumevshej.tolpy.2015.DUAL.BDRip.XviD.AC3.-HQCLUB.avi
Формат : AVI
Формат/Информация : Audio Video Interleave
Профиль формата : OpenDML
Размер файла : 2,18 Гбайт
Продолжительность : 1 ч. 58 м.
Общий поток : 2634 Кбит/сек
Название фильма : Вдали от обезумевшей толпы / Far from the Madding Crowd (2015) BDRip
Режиссёр : Elheym
Программа кодирования : VirtualDubMod 1.5.10.2 (build 2540/release)
Авторское право : HQCLUB
Примечание : 20.09.2015
Видео
Идентификатор : 0
Формат : MPEG-4 Visual
Профиль формата : Advanced Simple@L5
Параметр BVOP формата : 1
Параметр QPel формата : Нет
Параметр GMC формата : Без точки перехода
Параметр матрицы формата : Выборочная
Идентификатор кодека : XVID
Идентификатор кодека/Подсказка : XviD
Продолжительность : 1 ч. 58 м.
Битрейт : 1720 Кбит/сек
Ширина : 720 пикселей
Высота : 304 пикселя
Соотношение сторон : 2,35:1
Частота кадров : 23,976 кадра/сек
Цветовое пространство : YUV
Субдискретизация насыщенности : 4:2:0
Битовая глубина : 8 бит
Тип развёртки : Прогрессивная
Метод сжатия : С потерями
Бит/(Пиксели*Кадры) : 0.328
Размер потока : 1,43 Гбайт (65%)
Библиотека кодирования : XviD 67
Аудио #1
Идентификатор : 1
Формат : AC-3
Формат/Информация : Audio Coding 3
Расширение режима : CM (complete main)
Параметр Endianness формата : Big
Идентификатор кодека : 2000
Продолжительность : 1 ч. 58 м.
Вид битрейта : Постоянный
Битрейт : 448 Кбит/сек
Каналы : 6 каналов
Расположение каналов : Front: L C R, Side: L R, LFE
Частота : 48,0 КГц
Метод сжатия : С потерями
Размер потока : 380 Мбайт (17%)
Выравнивание : Разделение по промежуткам
Продолжительность промежутка : 42 мс. (1,00 видеокадр)
Время предзагрузки промежутка : 500 мс.
Аудио #2
Идентификатор : 2
Формат : AC-3
Формат/Информация : Audio Coding 3
Расширение режима : CM (complete main)
Параметр Endianness формата : Big
Идентификатор кодека : 2000
Продолжительность : 1 ч. 58 м.
Вид битрейта : Постоянный
Битрейт : 448 Кбит/сек
Каналы : 6 каналов
Расположение каналов : Front: L C R, Side: L R, LFE
Частота : 48,0 КГц
Метод сжатия : С потерями
Размер потока : 380 Мбайт (17%)
Выравнивание : Разделение по промежуткам
Продолжительность промежутка : 42 мс. (1,00 видеокадр)
Время предзагрузки промежутка : 500 мс.

Скриншоты




Показать сообщения:    

Текущее время: 03-Дек 07:37

Часовой пояс: UTC + 3


Вы не можете начинать темы
Вы не можете отвечать на сообщения
Вы не можете редактировать свои сообщения
Вы не можете удалять свои сообщения
Вы не можете голосовать в опросах
Вы не можете прикреплять файлы к сообщениям
Вы не можете скачивать файлы