(Oratorio) Mikis Theodorakis - Axion esti, Lobgepriesen sei (Stier, Emmerlich - Orchester der Hochschule für Musik “Carl Maria von Weber” Dresden, Theodorakis) - 1998, APE (image+.cue) lossless


Статистика раздачи [Обновить пиров]
Размер:  337 MB   |    Зарегистрирован:  8 месяцев 20 дней   |    Скачан:  0 раз

Полного источника не было: Никогда

 
   
 
 
 

[Цитировать]

Mikis Theodorakis - Axion esti, Lobgepriesen sei
Жанр: Oratorio
Страна-производитель диска: Germany
Год издания диска: 1998
Издатель (лейбл): Berlin Classics
Номер по каталогу: 00935522BC
Дата записи: 1983
Аудиокодек: APE
Тип рипа: image+.cue
Битрейт аудио: lossless
Продолжительность: 70'28
Источник: собственный рип
Наличие сканов в содержимом раздачи: да
Треклист:
01. I. Genesis
II. Passion
02. 1. Und hier, so sich! Bin ich
03. 2. Lesung: Der Marsch an die Front
04. 3. Nur diese eine Schwalbe
05. 4. Berge um mich her mein fester Grund
06. 5. Mit dem Lüster der Sterne
07. 6. Lesung: Der große Exodus
08. 7. Höre, reine Sonne der Gerechtigkeit
09. 8. Intermezzo
10. 9. Pupurn färbte mich das Blut
11. 10. Kirchen, gestickt ins Lichtmuster des runden Himmelsdoms
12. 11. Lesung: Weissagung
13. 12. Ich öffne den Mund
14. Ich ziehe in ein Land hinab
15. III. Lobgepriesen sei
Исполнители:
Mikis Theodorakis - Axion esti, Lobgepriesen sei
Oratorium nach Worten von Odysseas Elytes
Deutsche Nachdichtung: Dir Mandel
Gothart Stier, bariton
Gunter Emmerlich, bass
Friedrich Wilhelm Junge, speaker
Beethovenchor des VEB Elektromaschinenbau Sachsenwerk Dresden
FDJ-Chor der EOS-Kreuzschule Dresden
Kinderkammerchor der Philharmonie Dresden
Lakis Karnezis, buzuki
Erik Kross, sandori
Lehrkräfte der Bezirksmusikschule “Paul Büttner” Dresden
Orchester der Hochschule für Musik “Carl Maria von Weber” Dresden
Mikis Theodorakis, Conductor

Лог создания рипа

Exact Audio Copy V1.0 beta 6 from 9. April 2015
EAC extraction logfile from 16. September 2015, 0:30
Mikis Theodorakis / Axion esti, Lobgepriesen sei
Used drive : TSSTcorpCDDVDW SE-208AB Adapter: 1 ID: 2
Read mode : Secure
Utilize accurate stream : Yes
Defeat audio cache : Yes
Make use of C2 pointers : No
Read offset correction : 6
Overread into Lead-In and Lead-Out : No
Fill up missing offset samples with silence : Yes
Delete leading and trailing silent blocks : No
Null samples used in CRC calculations : Yes
Used interface : Native Win32 interface for Win NT & 2000
Used output format : Monkey's Audio Lossless Encoder
Selected bitrate : High Lossless Compression
Quality : High
Add ID3 tag : Yes
Command line compressor : C:\Program Files (x86)\Exact Audio Copy\MAC\MAC.exe
TOC of the extracted CD
Track | Start | Length | Start sector | End sector
---------------------------------------------------------
1 | 0:00.00 | 5:49.67 | 0 | 26241
2 | 5:49.67 | 2:28.13 | 26242 | 37354
3 | 8:18.05 | 3:59.00 | 37355 | 55279
4 | 12:17.05 | 3:07.37 | 55280 | 69341
5 | 15:24.42 | 5:20.40 | 69342 | 93381
6 | 20:45.07 | 3:08.70 | 93382 | 107551
7 | 23:54.02 | 3:27.50 | 107552 | 123126
8 | 27:21.52 | 4:34.45 | 123127 | 143721
9 | 31:56.22 | 3:03.55 | 143722 | 157501
10 | 35:00.02 | 4:00.68 | 157502 | 175569
11 | 39:00.70 | 3:04.00 | 175570 | 189369
12 | 42:04.70 | 6:14.30 | 189370 | 217449
13 | 48:19.25 | 3:28.32 | 217450 | 233081
14 | 51:47.57 | 2:29.18 | 233082 | 244274
15 | 54:17.00 | 16:10.12 | 244275 | 317036
Range status and errors
Selected range
Filename D:\EAC\Theodorakis - Axion esti, Lobgepriesen sei.wav
Peak level 99.7 %
Extraction speed 4.8 X
Range quality 100.0 %
Test CRC BDDE3747
Copy CRC BDDE3747
Copy OK
No errors occurred
AccurateRip summary
Track 1 accurately ripped (confidence 5) [B761BD23] (AR v2)
Track 2 accurately ripped (confidence 5) [0D072D41] (AR v2)
Track 3 accurately ripped (confidence 5) [6407D454] (AR v2)
Track 4 accurately ripped (confidence 5) [71984A2B] (AR v2)
Track 5 accurately ripped (confidence 5) [52D2C0EC] (AR v2)
Track 6 accurately ripped (confidence 5) [96CEB5D8] (AR v2)
Track 7 accurately ripped (confidence 5) [2029A0B7] (AR v2)
Track 8 accurately ripped (confidence 5) [D844D7DC] (AR v2)
Track 9 accurately ripped (confidence 5) [0E2480AE] (AR v2)
Track 10 accurately ripped (confidence 5) [A8A902C7] (AR v2)
Track 11 accurately ripped (confidence 5) [0EB39664] (AR v2)
Track 12 accurately ripped (confidence 5) [B5165DBD] (AR v2)
Track 13 accurately ripped (confidence 5) [A4229F06] (AR v2)
Track 14 accurately ripped (confidence 5) [94FB6BBB] (AR v2)
Track 15 accurately ripped (confidence 4) [62226F25] (AR v2)
All tracks accurately ripped
End of status report
---- CUETools DB Plugin V2.1.6
[CTDB TOCID: MV6rU9eBCY8b8qkhMsjowJjqXOM-] found
Submit result: MV6rU9eBCY8b8qkhMsjowJjqXOM- has been confirmed
Track | CTDB Status
1 | (3/3) Accurately ripped
2 | (3/3) Accurately ripped
3 | (3/3) Accurately ripped
4 | (3/3) Accurately ripped
5 | (3/3) Accurately ripped
6 | (3/3) Accurately ripped
7 | (3/3) Accurately ripped
8 | (3/3) Accurately ripped
9 | (3/3) Accurately ripped
10 | (3/3) Accurately ripped
11 | (3/3) Accurately ripped
12 | (3/3) Accurately ripped
13 | (3/3) Accurately ripped
14 | (3/3) Accurately ripped
15 | (3/3) Accurately ripped
==== Log checksum 409310954DDF776AFAEA7DC19E473A528552F5586ED46641966F1BB14877C7C6 ====

Содержание индексной карты (.CUE)

REM GENRE Oratorio
REM DATE 1983
REM DISCID BC10830F
REM COMMENT "ExactAudioCopy v1.0b6"
CATALOG 0000000000000
PERFORMER "Mikis Theodorakis"
TITLE " Axion esti, Lobgepriesen sei"
FILE "Theodorakis - Axion esti, Lobgepriesen sei.ape" WAVE
TRACK 01 AUDIO
TITLE "I. Genesis"
PERFORMER "Mikis Theodorakis"
INDEX 01 00:00:00
TRACK 02 AUDIO
TITLE "II. Passion: 1. Und hier, so sieh! bin ich"
PERFORMER "Mikis Theodorakis"
INDEX 01 05:49:67
TRACK 03 AUDIO
TITLE "2. Lesung: Der Marsch an die Front"
PERFORMER "Mikis Theodorakis"
INDEX 01 08:18:05
TRACK 04 AUDIO
TITLE "3. Nur diese eine Schwalbe"
PERFORMER "Mikis Theodorakis"
INDEX 01 12:17:05
TRACK 05 AUDIO
TITLE "4. Berge um mich her mein fester Grund"
PERFORMER "Mikis Theodorakis"
INDEX 01 15:24:42
TRACK 06 AUDIO
TITLE "5. Mit dem Lüster der Sterne"
PERFORMER "Mikis Theodorakis"
INDEX 01 20:45:07
TRACK 07 AUDIO
TITLE "6. Der große Exodus (Lesung)"
PERFORMER "Mikis Theodorakis"
INDEX 01 23:54:02
TRACK 08 AUDIO
TITLE "7. Höre, reine Sonne der Gerechtigkeit"
PERFORMER "Mikis Theodorakis"
INDEX 01 27:21:52
TRACK 09 AUDIO
TITLE "8. Intermezzo"
PERFORMER "Mikis Theodorakis"
INDEX 01 31:56:22
TRACK 10 AUDIO
TITLE "9. Purpurn färbte mich das Blut"
PERFORMER "Mikis Theodorakis"
INDEX 01 35:00:02
TRACK 11 AUDIO
TITLE "10. Kirchen gestickt ins Lichtmuster des runden Himmeldoms"
PERFORMER "Mikis Theodorakis"
INDEX 01 39:00:70
TRACK 12 AUDIO
TITLE "11. Weissagung (Lesung)"
PERFORMER "Mikis Theodorakis"
INDEX 01 42:04:70
TRACK 13 AUDIO
TITLE "12. Ich öffne den Mund"
PERFORMER "Mikis Theodorakis"
INDEX 01 48:19:25
TRACK 14 AUDIO
TITLE "13. Ich ziehe in ein Land hinab"
PERFORMER "Mikis Theodorakis"
INDEX 01 51:47:57
TRACK 15 AUDIO
TITLE "III. Lobgepriesen sei"
PERFORMER "Mikis Theodorakis"
INDEX 01 54:17:00
INDEX 02 62:35:07
[teatrix.ru].t22295.torrent 
Торрент: Зарегистрирован [ 2016-03-20 12:38 ] · D2F2E80D40FFF651A9AD8F1B410DD6D2A4E4D171

Скачать .torrent

Скачать

14 KB

Статус: проверено
Скачан: 0 раз
Размер: 337 MB
terms.php



Быстрый ответ

Имя:

      
Для отправки сообщений необходимо включить JavaScript
Показать сообщения:    

Текущее время: 09-Дек 20:26

Часовой пояс: UTC + 3


Вы можете начинать темы
Вы можете отвечать на сообщения
Вы не можете редактировать свои сообщения
Вы не можете удалять свои сообщения
Вы не можете голосовать в опросах
Вы не можете прикреплять файлы к сообщениям
Вы можете скачивать файлы