[TR24][SM][OF] Oboe Concertos - Graun · Krebs · Telemann - Heinz Holliger & Camerata Bern - 1979 & 1981 (Classical)


Статистика раздачи [Обновить пиров]
Размер:  1.36 GB   |    Зарегистрирован:  8 месяцев 14 дней   |    Скачан:  0 раз

Полного источника не было: Никогда

 
   
 
 
 

[Цитировать]

·
·
·

GRAUN · KREBS · TELEMANN
OBOE CONCERTOS
Жанр: Concerto
Носитель: Official Digital Download
Год издания: 1979, 1981 (Telemann)
Год переиздания: 2004
Номер по каталогу: 477 5002 © Deutsche Grammophon GmbH
Продолжительность: 01:14:35
Наличие сканов в содержимом раздачи: artwork
Контейнер: FLAC (*.flac)
Разрядность: 24/96
Количество каналов: 2.0
Формат: tracks
Источник: prestoclassical.co.uk
Pелизер: WEB (thanks to the original customer)

Треклист

JOHANN GOTTLIEB GRAUN (1702/03–1771)
Concerto in C minor for Oboe, Strings and Continuo
01 I. [Allegro] 08:16
02 II. Affettuoso 07:03
03 III. Allegro molto 05:20
Scoring: oboe, violin I (4), violin II (4), viola (3), violoncello (2), double bass (1), harpsichord
·
JOHANN LUDWIG KREBS (1713–1780)
Concerto in B minor for Harpsichord, Oboe, Strings and Continuo
04 I. Moderato 09:50
05 II. Amabile 06:07
06 III. Presto 04:40
Scoring: harpsichord, oboe, violin I (3), violin II (3), viola (2), violoncello (2), double bass (1)
·
JOHANN GOTTLIEB GRAUN
Concerto in G minor for Oboe, Strings and Continuo
07 I. Allegro 03:41
08 II. Andante con sordini 03:50
09 III. [Allegro] 03:08
Scoring: oboe, violin I (4), violin II (4), viola (3), violoncello (2), double bass (1), harpsichord
·
GEORG PHILIPP TELEMANN (1681–1767)
Concerto in E flat major for Oboe, Strings and Continuo
10 I. Allegro 04:39
11 II. Largo 03:58
12 III. Allegro 03:15
Scoring: oboe, violin I (3), violin II (3), viola (3), violoncello (2), double bass (1), harpsichord
Concerto in B flat for 2 recorders, 2 oboes, violin, 2 violas, cello, double-bass and Continuo
13 I. Andante 02:10
14 II. Presto 02:51
15 III. Cantabile 03:15
16 IV. Allegro 02:39
Scoring: flute I / II, oboe I / II, violin (1), viola I / II (1/1), violoncello (1), double bass (1), bassoon (1), harpsichord

Исполнители

Heinz Holligeroboe · hautbois
Aurèle Nicolet transverse flute I · Querflöte · flûte traversière
Christiane Nicolet transverse flute II
Louise Pellerin oboe II (Telemann)
Christiane Jaccottet harpsichord · Cembalo · Clavecin (Graun, Krebs)
Jörg E. Dähler harpsichord (Telemann)
CAMERATA BERN
Leader and direction:
Alexander van Wijnkoop (Graun, Krebs) · Thomas Füri (Telemann)

Dynamic Range Meter

foobar2000 1.2.6 / Dynamic Range Meter 1.1.1
log date: 2015-09-20 23:55:44
--------------------------------------------------------------------------------
Analyzed: Heinz Holliger / Graun, Krebs, Telemann: Oboe Concertos
--------------------------------------------------------------------------------
DR Peak RMS Duration Track
--------------------------------------------------------------------------------
DR13 -2.85 dB -20.79 dB 8:17 01-Concerto in C minor for Oboe, Strings and Continuo: I. [Allegro]
DR13 -5.56 dB -21.53 dB 7:03 02-Concerto in C minor for Oboe, Strings and Continuo: II. Affettuoso
DR14 -2.57 dB -21.13 dB 5:23 03-Concerto in C minor for Oboe, Strings and Continuo: III. Allegro molto
DR14 -3.24 dB -22.96 dB 9:49 04-Concerto in B minor for Harpsichord, Oboe, Strings and Continuo: I. Moderato
DR13 -6.05 dB -23.30 dB 6:07 05-Concerto in B minor for Harpsichord, Oboe, Strings and Continuo: II. Amabile
DR13 -3.05 dB -22.31 dB 4:42 06-Concerto in B minor for Harpsichord, Oboe, Strings and Continuo: III. Presto
DR13 -3.73 dB -20.87 dB 3:41 07-Concerto in G minor for Oboe, Strings and Continuo: I. Allegro
DR13 -4.27 dB -20.87 dB 3:50 08-Concerto in G minor for Oboe, Strings and Continuo: II. Andante con sordini
DR13 -4.39 dB -21.27 dB 3:13 09-Concerto in G minor for Oboe, Strings and Continuo: III. (Tempo not indicated)
DR13 -3.54 dB -20.76 dB 4:40 10-Concerto in E flat major for Oboe, Strings and Continuo: I. Allegro
DR11 -7.10 dB -23.88 dB 3:58 11-Concerto in E flat major for Oboe, Strings and Continuo: II. Largo
DR13 -3.04 dB -20.90 dB 3:17 12-Concerto in E flat major for Oboe, Strings and Continuo: III. Allegro
DR11 -3.62 dB -18.80 dB 2:11 13-Concerto in B flat for 2 recorders, 2 oboes, violin, 2 violas, cello, double-bass and Continuo: I. Andante
DR13 -2.16 dB -17.54 dB 2:51 14-Concerto in B flat for 2 recorders, 2 oboes, violin, 2 violas, cello, double-bass and Continuo: II. Presto
DR11 -4.32 dB -18.82 dB 3:15 15-Concerto in B flat for 2 recorders, 2 oboes, violin, 2 violas, cello, double-bass and Continuo: III. Cantabile
DR12 -2.00 dB -17.96 dB 2:38 16-Concerto in B flat for 2 recorders, 2 oboes, violin, 2 violas, cello, double-bass and Continuo: IV. Allegro
--------------------------------------------------------------------------------
Number of tracks: 16
Official DR value: DR13
Samplerate: 96000 Hz
Channels: 2
Bits per sample: 24
Bitrate: 2594 kbps
Codec: FLAC
================================================================================
[teatrix.ru].t22296.torrent 
Торрент: Зарегистрирован [ 2016-03-20 12:38 ] · B106476102B5651323C206EEB02DF17EB9E306F4

Скачать .torrent

Скачать

16 KB

Статус: проверено
Скачан: 0 раз
Размер: 1.36 GB
terms.php



Быстрый ответ

Имя:

      
Для отправки сообщений необходимо включить JavaScript
Показать сообщения:    

Текущее время: 04-Дек 11:15

Часовой пояс: UTC + 3


Вы можете начинать темы
Вы можете отвечать на сообщения
Вы не можете редактировать свои сообщения
Вы не можете удалять свои сообщения
Вы не можете голосовать в опросах
Вы не можете прикреплять файлы к сообщениям
Вы можете скачивать файлы