(Sacred) Monteverdi - Vespro della Beate Vergine (Mauch, Decker, Hiller, Seidel - L'arpa festante München, Schweizer) • Purcell - Sacred Music (The Choir of Clare College Cambridge, Brown) - 2001, APE (image+.cue) lossless


Статистика раздачи [Обновить пиров]
Размер:  551 MB   |    Зарегистрирован:  8 месяцев 14 дней   |    Скачан:  0 раз

Полного источника не было: Никогда

 
   
 
 
 

[Цитировать]

Claudio Monteverdi - Vespro della Beate Vergine • Henry Purcell - Sacred Music
Жанр: Classical
Страна-производитель диска: EU
Год издания диска: 2001
Издатель (лейбл): Brilliant Classics
Номер по каталогу: 99455
Аудиокодек: APE
Тип рипа: image+.cue
Битрейт аудио: lossless
Продолжительность: 78'19+65'37
Источник: собственный рип
Наличие сканов в содержимом раздачи: да
Треклист / Исполнители:
Monteverdi - Vespro della Beate Vergine
CD1
1. Deus adjutorium
2. Anitphon to Psalm 109
3. Psalm 109: Dixit Dominus
4. Antiphon
5. Concerto: Nigra sum
6. Anitphon to Psalm 112
7. Psalm 112: Laudate Pueri
8. Antiphon
9. Concerto: Pulchra es
10. Antiphon to Psalm 121
11. Psalm 121: Laetatus sum
12. Antiphon
13. Concerto: Duo Seraphim
14. Antiphon to Psalm 126
15. Psalm 126: Nisi Dominus
16. Antiphon
17. Concerto: Audi coelum
18. Antiphon to Psalm 147
19. Psalm 147: Lauda Jerusalem
20. Antiphon
21. Sonata Sancta Maria
22. Hymnus Ave Maris Stella
23. Antiphon to Magnificat
24. Magnificat anima mea
25. Et exultavit
26. Quia respexit
27. Quia fecit
28. Et misericordia
29. Fecit potentiam
CD2
1. Deposuit potentes
2. Esurientes
3. Suscepit Israel
4. Sicut locutus est
5. Gloria Patri
6. Sicut erat in principio
7. Antiphon
Monica Mauch, Judith Decker - Sopranos
Holger Speck, Tobias Hiller - Tenors
Adolph Seidel - Bass
Motettenchor Pforzheim
L'arpa festante München (Period Instruments)
Prof. Rolf Schweizer, conductor
Purcell - Sacred Music
CD2
8. Te Deum
9. Jubilate Deo
10. Me Beloved sapke
11. O God, Thou art my God
12. Lord, how long wilt Thou be angry
13. Remeber not, Lord, our offences
14. Hear my Prayer, O Lord
15. Funeral March
16. Man that is born of a woman
17. In the midst of life
18. Canzona
19. Thou knowest, Lord
20. Funeral March
The Choir of Clare College Cambridge, Timothy Brown
Andrew Manze, Marshall Marcus - violins
Jan Schlapp - viola
Jenny Ward-Clarke - bass violin
Liz Kenny, William Carter - theorbo
Jonthan Brown - organ
Baroque Brass of London

Лог создания рипа

CD1

Exact Audio Copy V1.0 beta 3 from 29. August 2011
EAC extraction logfile from 25. May 2015, 20:04
Monteverdi / Vespro della Beate Vergine, Sanctus CD3
Used drive : HL-DT-STDVDRAM GH22NS50 Adapter: 0 ID: 2
Read mode : Secure
Utilize accurate stream : Yes
Defeat audio cache : Yes
Make use of C2 pointers : No
Read offset correction : 667
Overread into Lead-In and Lead-Out : No
Fill up missing offset samples with silence : Yes
Delete leading and trailing silent blocks : No
Null samples used in CRC calculations : Yes
Used interface : Native Win32 interface for Win NT & 2000
Used output format : Monkey's Audio Lossless Encoder
Selected bitrate : High Lossless Compression
Quality : High
Add ID3 tag : Yes
Command line compressor : C:\Program Files (x86)\Exact Audio Copy\MAC\MAC.exe
TOC of the extracted CD
Track | Start | Length | Start sector | End sector
---------------------------------------------------------
1 | 0:01.00 | 2:05.68 | 75 | 9517
2 | 2:06.68 | 0:23.61 | 9518 | 11303
3 | 2:30.54 | 7:33.61 | 11304 | 45339
4 | 10:04.40 | 0:24.27 | 45340 | 47166
5 | 10:28.67 | 3:24.04 | 47167 | 62470
6 | 13:52.71 | 0:22.38 | 62471 | 64158
7 | 14:15.34 | 5:59.11 | 64159 | 91094
8 | 20:14.45 | 0:23.65 | 91095 | 92884
9 | 20:38.35 | 3:51.53 | 92885 | 110262
10 | 24:30.13 | 0:23.14 | 110263 | 112001
11 | 24:53.27 | 6:42.25 | 112002 | 142176
12 | 31:35.52 | 0:24.14 | 142177 | 143990
13 | 31:59.66 | 5:27.23 | 143991 | 168538
14 | 37:27.14 | 1:08.10 | 168539 | 173648
15 | 38:35.24 | 4:46.02 | 173649 | 195100
16 | 43:21.26 | 1:11.30 | 195101 | 200455
17 | 44:32.56 | 7:38.12 | 200456 | 234817
18 | 52:10.68 | 0:14.41 | 234818 | 235908
19 | 52:25.34 | 4:24.64 | 235909 | 255772
20 | 56:50.23 | 0:16.57 | 255773 | 257029
21 | 57:07.05 | 6:29.44 | 257030 | 286248
22 | 63:36.49 | 6:53.44 | 286249 | 317267
23 | 70:30.18 | 0:21.58 | 317268 | 318900
24 | 70:52.01 | 0:52.14 | 318901 | 322814
25 | 71:44.15 | 1:13.00 | 322815 | 328289
26 | 72:57.15 | 1:30.53 | 328290 | 335092
27 | 74:27.68 | 1:02.39 | 335093 | 339781
28 | 75:30.32 | 1:40.18 | 339782 | 347299
29 | 77:10.50 | 1:07.08 | 347300 | 352332
Range status and errors
Selected range
Filename D:\EAC\Monteverdi - Vespro della Beate Vergine, Sanctus CD3.wav
Peak level 99.9 %
Extraction speed 2.1 X
Range quality 100.0 %
Test CRC 6692387E
Copy CRC 6692387E
Copy OK
No errors occurred
AccurateRip summary
Track 1 accurately ripped (confidence 2) [D42035AE] (AR v1)
Track 2 accurately ripped (confidence 3) [CE907723] (AR v1)
Track 3 accurately ripped (confidence 3) [3887E648] (AR v1)
Track 4 accurately ripped (confidence 3) [D63EF770] (AR v1)
Track 5 accurately ripped (confidence 3) [45983F41] (AR v1)
Track 6 accurately ripped (confidence 3) [91D146F4] (AR v1)
Track 7 accurately ripped (confidence 3) [5D05DC9F] (AR v1)
Track 8 accurately ripped (confidence 3) [9811038E] (AR v1)
Track 9 accurately ripped (confidence 3) [16656993] (AR v1)
Track 10 accurately ripped (confidence 3) [7844E4C0] (AR v1)
Track 11 accurately ripped (confidence 3) [1536794F] (AR v1)
Track 12 accurately ripped (confidence 3) [1C123C66] (AR v1)
Track 13 accurately ripped (confidence 3) [007A7CAB] (AR v1)
Track 14 accurately ripped (confidence 3) [649A7B2C] (AR v1)
Track 15 accurately ripped (confidence 3) [E59062F6] (AR v1)
Track 16 accurately ripped (confidence 3) [5E6279C5] (AR v1)
Track 17 accurately ripped (confidence 3) [117A361A] (AR v1)
Track 18 accurately ripped (confidence 3) [D2DBEC12] (AR v1)
Track 19 accurately ripped (confidence 3) [F1A86F08] (AR v1)
Track 20 accurately ripped (confidence 3) [A819ED14] (AR v1)
Track 21 accurately ripped (confidence 3) [6073F9BE] (AR v1)
Track 22 accurately ripped (confidence 3) [1CA556ED] (AR v1)
Track 23 accurately ripped (confidence 3) [229EFEF6] (AR v1)
Track 24 accurately ripped (confidence 3) [DB884406] (AR v1)
Track 25 accurately ripped (confidence 3) [CFD12305] (AR v1)
Track 26 accurately ripped (confidence 3) [4BE5BD9D] (AR v1)
Track 27 accurately ripped (confidence 3) [6B626810] (AR v1)
Track 28 accurately ripped (confidence 3) [8D60446B] (AR v1)
Track 29 accurately ripped (confidence 3) [F9CE2D25] (AR v1)
All tracks accurately ripped
End of status report
---- CUETools DB Plugin V2.1.3
[CTDB TOCID: shDBN6yy01C857_.z3pekPF0AmU-] found, Submit result: discs with pregaps not supported in this protocol version
[6010da25] (1/2) Differs in 3 samples @47:21:54
[4368bc4c] (1/2) Differs in 0 samples @
You can use CUETools to repair this rip.
==== Log checksum 51E2F3FFF5DDB5F79D5D3E0B8E35EAE9D300D9E7777F2218B2438B27B3E0259B ====

CD2

Exact Audio Copy V1.0 beta 6 from 9. April 2015
EAC extraction logfile from 10. June 2015, 14:43
Monteverdi • Purcell / Vespro Beate Verginl • Sacred Music, Sanctus CD4
Used drive : TSSTcorpCDDVDW SE-208AB Adapter: 1 ID: 1
Read mode : Secure
Utilize accurate stream : Yes
Defeat audio cache : Yes
Make use of C2 pointers : No
Read offset correction : 6
Overread into Lead-In and Lead-Out : No
Fill up missing offset samples with silence : Yes
Delete leading and trailing silent blocks : No
Null samples used in CRC calculations : Yes
Used interface : Native Win32 interface for Win NT & 2000
Used output format : Monkey's Audio Lossless Encoder
Selected bitrate : High Lossless Compression
Quality : High
Add ID3 tag : Yes
Command line compressor : C:\Program Files (x86)\Exact Audio Copy\MAC\MAC.exe
TOC of the extracted CD
Track | Start | Length | Start sector | End sector
---------------------------------------------------------
1 | 0:01.00 | 2:31.48 | 75 | 11447
2 | 2:32.48 | 1:07.53 | 11448 | 16525
3 | 3:40.26 | 1:18.39 | 16526 | 22414
4 | 4:58.65 | 1:09.48 | 22415 | 27637
5 | 6:08.38 | 2:16.06 | 27638 | 37843
6 | 8:24.44 | 2:03.63 | 37844 | 47131
7 | 10:28.32 | 0:25.11 | 47132 | 49017
8 | 10:53.43 | 11:36.21 | 49018 | 101238
9 | 22:29.64 | 7:13.41 | 101239 | 133754
10 | 29:43.30 | 9:28.65 | 133755 | 176419
11 | 39:12.20 | 3:24.26 | 176420 | 191745
12 | 42:36.46 | 3:17.24 | 191746 | 206544
13 | 45:53.70 | 2:52.67 | 206545 | 219511
14 | 48:46.62 | 2:03.04 | 219512 | 228740
15 | 50:49.66 | 2:09.02 | 228741 | 238417
16 | 52:58.68 | 2:23.67 | 238418 | 249209
17 | 55:22.60 | 3:40.14 | 249210 | 265723
18 | 59:02.74 | 2:23.73 | 265724 | 276521
19 | 61:26.72 | 2:51.28 | 276522 | 289374
20 | 64:18.25 | 1:17.26 | 289375 | 295175
Range status and errors
Selected range
Filename D:\Converted\Converted\Monteverdi • Purcell\2006 - Vespro Beate Verginl • Sacred Music, Sanctus CD4\Monteverdi • Purcell - Vespro Beate Verginl • Sacred Music, Sanctus CD4.wav
Peak level 99.9 %
Extraction speed 5.0 X
Range quality 100.0 %
Test CRC AA45CE97
Copy CRC AA45CE97
Copy OK
No errors occurred
AccurateRip summary
Track 1 accurately ripped (confidence 6) [0DEF06AA] (AR v2)
Track 2 accurately ripped (confidence 6) [38000D8C] (AR v2)
Track 3 accurately ripped (confidence 6) [F6B1022E] (AR v2)
Track 4 accurately ripped (confidence 6) [F533EF88] (AR v2)
Track 5 accurately ripped (confidence 6) [B8236BE4] (AR v2)
Track 6 accurately ripped (confidence 6) [A3ED7AAA] (AR v2)
Track 7 accurately ripped (confidence 6) [86B22DA5] (AR v2)
Track 8 accurately ripped (confidence 6) [7C518A6D] (AR v2)
Track 9 accurately ripped (confidence 6) [7D68167A] (AR v2)
Track 10 accurately ripped (confidence 6) [E46D1E61] (AR v2)
Track 11 accurately ripped (confidence 5) [0733AADA] (AR v2)
Track 12 accurately ripped (confidence 5) [1772EE0D] (AR v2)
Track 13 accurately ripped (confidence 5) [D88E912E] (AR v2)
Track 14 accurately ripped (confidence 5) [223EA920] (AR v2)
Track 15 accurately ripped (confidence 5) [D42D526B] (AR v2)
Track 16 accurately ripped (confidence 5) [0404A7D1] (AR v2)
Track 17 cannot be verified as accurate (confidence 4) [E2EC5D2F], AccurateRip returned [B1BB5C04] (AR v2)
Track 18 cannot be verified as accurate (confidence 4) [6B688EB6], AccurateRip returned [2F63648B] (AR v2)
Track 19 accurately ripped (confidence 6) [4BC39E98] (AR v2)
Track 20 accurately ripped (confidence 5) [F93BA534] (AR v2)
18 track(s) accurately ripped
2 track(s) could not be verified as accurate
Some tracks could not be verified as accurate
End of status report
---- CUETools DB Plugin V2.1.6
[CTDB TOCID: 74S6mg5ChFszDrzOtXvehuKcJRQ-] found
Submit result: 74S6mg5ChFszDrzOtXvehuKcJRQ- has been submitted
Track | CTDB Status
1 | (2/2) Accurately ripped
2 | (2/2) Accurately ripped
3 | (2/2) Accurately ripped
4 | (2/2) Accurately ripped
5 | (2/2) Accurately ripped
6 | (2/2) Accurately ripped
7 | (2/2) Accurately ripped
8 | (2/2) Accurately ripped
9 | (2/2) Accurately ripped
10 | (2/2) Accurately ripped
11 | (2/2) Accurately ripped
12 | (2/2) Accurately ripped
13 | (2/2) Accurately ripped
14 | (2/2) Accurately ripped
15 | (2/2) Accurately ripped
16 | (2/2) Accurately ripped
17 | (2/2) Differs in 368 samples @02:26:45-02:26:46,02:31:57-02:31:58,02:33:72-02:33:73,02:50:14-02:50:15,02:50:32-02:50:33,03:00:21-03:00:22,03:10:48,03:27:13
18 | (2/2) Differs in 141 samples @00:32:05,01:46:65-01:46:66
19 | (2/2) Accurately ripped
20 | (2/2) Accurately ripped
If you are sure that your rip contains errors, you can use CUETools to repair it.
==== Log checksum 9233D69CAD89B71086847174DA766B77B0EC51813C183CA88B8B846B4F9339FB ====

Содержание индексной карты (.CUE)

CD1

REM GENRE Choral
REM DATE 2006
REM DISCID 9D12581D
REM COMMENT "ExactAudioCopy v1.0b3"
PERFORMER "Monteverdi"
TITLE "Vespro della Beate Vergine, Sanctus CD3"
FILE "Monteverdi - Vespro della Beate Vergine, Sanctus CD3.ape" WAVE
TRACK 01 AUDIO
TITLE "Deus adjutorium"
PERFORMER "Monteverdi"
INDEX 00 00:00:00
INDEX 01 00:01:00
TRACK 02 AUDIO
TITLE "Anitphon to Psalm 109"
PERFORMER "Monteverdi"
INDEX 00 02:04:23
INDEX 01 02:06:68
TRACK 03 AUDIO
TITLE "Psalm 109: Dixit Dominus"
PERFORMER "Monteverdi"
INDEX 01 02:30:54
TRACK 04 AUDIO
TITLE "Antiphon"
PERFORMER "Monteverdi"
INDEX 00 10:01:70
INDEX 01 10:04:40
TRACK 05 AUDIO
TITLE "Concerto: Nigra sum"
PERFORMER "Monteverdi"
INDEX 01 10:28:67
TRACK 06 AUDIO
TITLE "Anitphon to Psalm 112"
PERFORMER "Monteverdi"
INDEX 00 13:50:26
INDEX 01 13:52:71
TRACK 07 AUDIO
TITLE "Psalm 112: Laudate Pueri"
PERFORMER "Monteverdi"
INDEX 01 14:15:34
TRACK 08 AUDIO
TITLE "Antiphon"
PERFORMER "Monteverdi"
INDEX 00 20:12:00
INDEX 01 20:14:45
TRACK 09 AUDIO
TITLE "Concerto: Pulchra es"
PERFORMER "Monteverdi"
INDEX 01 20:38:35
TRACK 10 AUDIO
TITLE "Antiphon to Psalm 121"
PERFORMER "Monteverdi"
INDEX 00 24:27:43
INDEX 01 24:30:13
TRACK 11 AUDIO
TITLE "Psalm 121: Laetatus sum"
PERFORMER "Monteverdi"
INDEX 01 24:53:27
TRACK 12 AUDIO
TITLE "Antiphon"
PERFORMER "Monteverdi"
INDEX 00 31:33:07
INDEX 01 31:35:52
TRACK 13 AUDIO
TITLE "Concerto: Duo Seraphim"
PERFORMER "Monteverdi"
INDEX 01 31:59:66
TRACK 14 AUDIO
TITLE "Antiphon to Psalm 126"
PERFORMER "Monteverdi"
INDEX 00 37:24:44
INDEX 01 37:27:14
TRACK 15 AUDIO
TITLE "Psalm 126: Nisi Dominus"
PERFORMER "Monteverdi"
INDEX 01 38:35:24
TRACK 16 AUDIO
TITLE "Antiphon"
PERFORMER "Monteverdi"
INDEX 00 43:18:56
INDEX 01 43:21:26
TRACK 17 AUDIO
TITLE "Concerto: Audi coelum"
PERFORMER "Monteverdi"
INDEX 00 44:30:11
INDEX 01 44:32:56
TRACK 18 AUDIO
TITLE "Antiphon to Psalm 147"
PERFORMER "Monteverdi"
INDEX 00 52:08:23
INDEX 01 52:10:68
TRACK 19 AUDIO
TITLE "Psalm 147: Lauda Jerusalem"
PERFORMER "Monteverdi"
INDEX 01 52:25:34
TRACK 20 AUDIO
TITLE "Antiphon"
PERFORMER "Monteverdi"
INDEX 00 56:47:53
INDEX 01 56:50:23
TRACK 21 AUDIO
TITLE "Sonata Sancta Maria"
PERFORMER "Monteverdi"
INDEX 01 57:07:05
TRACK 22 AUDIO
TITLE "Hymnus Ave Maris Stella"
PERFORMER "Monteverdi"
INDEX 00 63:34:04
INDEX 01 63:36:49
TRACK 23 AUDIO
TITLE "Antiphon to Magnificat"
PERFORMER "Monteverdi"
INDEX 00 70:27:48
INDEX 01 70:30:18
TRACK 24 AUDIO
TITLE "Magnificat anima mea"
PERFORMER "Monteverdi"
INDEX 01 70:52:01
TRACK 25 AUDIO
TITLE "Et exultavit"
PERFORMER "Monteverdi"
INDEX 00 71:41:45
INDEX 01 71:44:15
TRACK 26 AUDIO
TITLE "Quia respexit"
PERFORMER "Monteverdi"
INDEX 00 72:54:45
INDEX 01 72:57:15
TRACK 27 AUDIO
TITLE "Quia fecit"
PERFORMER "Monteverdi"
INDEX 00 74:25:23
INDEX 01 74:27:68
TRACK 28 AUDIO
TITLE "Et misericordia"
PERFORMER "Monteverdi"
INDEX 00 75:27:62
INDEX 01 75:30:32
TRACK 29 AUDIO
TITLE "Fecit potentiam"
PERFORMER "Monteverdi"
INDEX 00 77:08:05
INDEX 01 77:10:50

CD2

REM GENRE Choral
REM DATE 2006
REM DISCID 090F5E14
REM COMMENT "ExactAudioCopy v1.0b6"
PERFORMER "Monteverdi • Purcell "
TITLE "Vespro Beate Verginl • Sacred Music, Sanctus CD4"
FILE "Monteverdi • Purcell - Vespro Beate Verginl • Sacred Music, Sanctus CD4.ape" WAVE
TRACK 01 AUDIO
TITLE "Monteverdi / Deposuit potentes"
PERFORMER "Monteverdi • Purcell "
INDEX 00 00:00:00
INDEX 01 00:01:00
TRACK 02 AUDIO
TITLE "Monteverdi / Esurientes"
PERFORMER "Monteverdi • Purcell "
INDEX 00 02:30:03
INDEX 01 02:32:48
TRACK 03 AUDIO
TITLE "Monteverdi / Suscepit Israel"
PERFORMER "Monteverdi • Purcell "
INDEX 00 03:37:56
INDEX 01 03:40:26
TRACK 04 AUDIO
TITLE "Monteverdi / Sicut locutus est"
PERFORMER "Monteverdi • Purcell "
INDEX 00 04:56:20
INDEX 01 04:58:65
TRACK 05 AUDIO
TITLE "Monteverdi / Gloria Patri"
PERFORMER "Monteverdi • Purcell "
INDEX 00 06:05:68
INDEX 01 06:08:38
TRACK 06 AUDIO
TITLE "Monteverdi / Sicut erat in principio"
PERFORMER "Monteverdi • Purcell "
INDEX 00 08:21:74
INDEX 01 08:24:44
TRACK 07 AUDIO
TITLE "Monteverdi / Antiphon"
PERFORMER "Monteverdi • Purcell "
INDEX 00 10:25:62
INDEX 01 10:28:32
TRACK 08 AUDIO
TITLE "Purcell / Te Deum"
PERFORMER "Monteverdi • Purcell "
INDEX 00 10:50:73
INDEX 01 10:53:43
TRACK 09 AUDIO
TITLE "Purcell / Jubilate Deo"
PERFORMER "Monteverdi • Purcell "
INDEX 00 22:27:19
INDEX 01 22:29:64
TRACK 10 AUDIO
TITLE "Purcell / Me Beloved sapke"
PERFORMER "Monteverdi • Purcell "
INDEX 00 29:40:60
INDEX 01 29:43:30
TRACK 11 AUDIO
TITLE "Purcell / O God, Thou art my God"
PERFORMER "Monteverdi • Purcell "
INDEX 00 39:09:50
INDEX 01 39:12:20
TRACK 12 AUDIO
TITLE "Purcell / Lord, how long wilt Thou be angry"
PERFORMER "Monteverdi • Purcell "
INDEX 00 42:34:01
INDEX 01 42:36:46
TRACK 13 AUDIO
TITLE "Purcell / Remeber not, Lord, our offences"
PERFORMER "Monteverdi • Purcell "
INDEX 00 45:51:25
INDEX 01 45:53:70
TRACK 14 AUDIO
TITLE "Purcell / Hear my Prayer, O Lord"
PERFORMER "Monteverdi • Purcell "
INDEX 00 48:44:17
INDEX 01 48:46:62
TRACK 15 AUDIO
TITLE "Purcell / Funeral March"
PERFORMER "Monteverdi • Purcell "
INDEX 00 50:47:21
INDEX 01 50:49:66
TRACK 16 AUDIO
TITLE "Purcell / Man that is born of a woman"
PERFORMER "Monteverdi • Purcell "
INDEX 00 52:56:23
INDEX 01 52:58:68
TRACK 17 AUDIO
TITLE "Purcell / In the midst of life"
PERFORMER "Monteverdi • Purcell "
INDEX 00 55:20:15
INDEX 01 55:22:60
TRACK 18 AUDIO
TITLE "Purcell / Canzona"
PERFORMER "Monteverdi • Purcell "
INDEX 01 59:02:74
TRACK 19 AUDIO
TITLE "Purcell / Thou knowest, Lord"
PERFORMER "Monteverdi • Purcell "
INDEX 01 61:26:72
TRACK 20 AUDIO
TITLE "Purcell / Funeral March"
PERFORMER "Monteverdi • Purcell "
INDEX 01 64:18:25
[teatrix.ru].t22301.torrent 
Торрент: Зарегистрирован [ 2016-03-20 12:38 ] · 7569357CEC7F3669BB334FD0DBFB9C72E89F4BC6

Скачать .torrent

Скачать

12 KB

Статус: проверено
Скачан: 0 раз
Размер: 551 MB
terms.php



Быстрый ответ

Имя:

      
Для отправки сообщений необходимо включить JavaScript
Показать сообщения:    

Текущее время: 03-Дек 16:44

Часовой пояс: UTC + 3


Вы можете начинать темы
Вы можете отвечать на сообщения
Вы не можете редактировать свои сообщения
Вы не можете удалять свои сообщения
Вы не можете голосовать в опросах
Вы не можете прикреплять файлы к сообщениям
Вы можете скачивать файлы