(Classical) Janacek - The Diary of One Who Disappeared [2 versions] (Blachut, Stepanova, Palenicek, Kuhn 1956 / Gedda, Soukupova, Palenicek, Kosler 1984) - 2000, APE (image+.cue) lossless


 

[Цитировать]

Leos Janacek - The Diary of One Who Disappeared
Жанр: Classical
Страна-производитель диска: Czech Republic
Год издания диска: 2000
Издатель (лейбл): Supraphon
Номер по каталогу: su 0022-2 201
Дата записи: 1956/1984
Аудиокодек: APE
Тип рипа: image+.cue
Битрейт аудио: lossless
Продолжительность: 73'11
Источник: собственный рип
Наличие сканов в содержимом раздачи: да
Треклист / Исполнители:
Leos Janacek - The Diary of One Who Disappeared
Cycle of 22 songs for Tenor, Contralto, Three Female Voices and Piano
Original lyrics by Ozef Kalda
Version 1:
Треклист:
1. One day I met a Gypsy Girl. Andante
2. That black-eyed Gypsy. Con moto
3. Through the twilight glow-worms. Andante
4. Already swallows are. Andante /att./
5. Weary work is ploughing. Adagio
6. Hej, there my tawny oxen. Allegro
7. I´ve got a loose axle. Con moto
8. Don´t look, my oxen. Andante
9. Welcome, my handsome one
10. Good all-powerful, God eternal. Un poco piu mosso
11. From the rip´ning cornfield. Con moto
12. Forest´s shady height /att./
13. Andante
14. See how high the sun is! Adagio
15. Now my tawny oxen. Allegro
16. What has come over me? Adagio
17. Who can escape his fate. Recitativo /att./
18. Nothing matters now
19. See that thieving magpie. Andante
20. Now she bears my child. Con moto
21. Father, how wrong you were. Meno mosso
22. Then farewell, dearest land. Andante
contralto, Vera Soukupova
tenor, Nicolai Gedda
piano, Josef Palenicek
Prague Radio Chamber Female Chorus
Chorus master: Miroslav Kosler
Version 2:
Треклист:
1. One day I met a Gypsy Girl. Andante
2. That black-eyed Gypsy. Con moto
3. Through the twilight glow-worms. Andante
4. Already swallows are. Andante /att./
5. Weary work is ploughing. Adagio
6. Hej, there my tawny oxen. Allegro
7. I´ve got a loose axle. Con moto
8. Don´t look, my oxen. Andante
9. Welcome, my handsome one
10. Good all-powerful, God eternal. Un poco piu mosso
11. From the rip´ning cornfield. Con moto
12. Forest´s shady height /att./
13. Andante
14. See how high the sun is! Adagio
15. Now my tawny oxen. Allegro
16. What has come over me? Adagio
17. Who can escape his fate. Recitativo /att./
18. Nothing matters now
19. See that thieving magpie. Andante
20. Now she bears my child. Con moto
21. Father, how wrong you were. Meno mosso
22. Then farewell, dearest land. Andante
contralto, Stepanka Stepanova
tenor, Beno Blachut
piano, Josef Palenicek
Czech Singers
Chamber Female Chorus
Chorus master: Jan Kühn

Лог создания рипа

Exact Audio Copy V1.0 beta 6 from 9. April 2015
EAC extraction logfile from 4. September 2015, 19:42
Gedda, Soukupova - Prague Radio Chorus, Kosler / Janacek - The Diary of One Who Disappeared
Used drive : TS8XDVDSTRANSCEND Adapter: 1 ID: 1
Read mode : Secure
Utilize accurate stream : Yes
Defeat audio cache : Yes
Make use of C2 pointers : No
Read offset correction : 6
Overread into Lead-In and Lead-Out : No
Fill up missing offset samples with silence : Yes
Delete leading and trailing silent blocks : No
Null samples used in CRC calculations : Yes
Used interface : Native Win32 interface for Win NT & 2000
Used output format : Monkey's Audio Lossless Encoder
Selected bitrate : High Lossless Compression
Quality : High
Add ID3 tag : Yes
Command line compressor : C:\Program Files (x86)\Exact Audio Copy\MAC\MAC.exe
TOC of the extracted CD
Track | Start | Length | Start sector | End sector
---------------------------------------------------------
1 | 0:00.32 | 1:20.10 | 32 | 6041
2 | 1:20.42 | 1:13.40 | 6042 | 11556
3 | 2:34.07 | 1:47.40 | 11557 | 19621
4 | 4:21.47 | 0:51.70 | 19622 | 23516
5 | 5:13.42 | 0:47.45 | 23517 | 27086
6 | 6:01.12 | 1:57.63 | 27087 | 35924
7 | 7:59.00 | 0:58.57 | 35925 | 40331
8 | 8:57.57 | 1:01.33 | 40332 | 44939
9 | 9:59.15 | 2:59.37 | 44940 | 58401
10 | 12:58.52 | 4:51.30 | 58402 | 80256
11 | 17:50.07 | 3:03.00 | 80257 | 93981
12 | 20:53.07 | 0:58.60 | 93982 | 98391
13 | 21:51.67 | 2:32.28 | 98392 | 109819
14 | 24:24.20 | 0:57.65 | 109820 | 114159
15 | 25:22.10 | 0:49.60 | 114160 | 117894
16 | 26:11.70 | 1:23.00 | 117895 | 124119
17 | 27:34.70 | 1:45.19 | 124120 | 132013
18 | 29:20.14 | 1:08.68 | 132014 | 137181
19 | 30:29.07 | 1:27.08 | 137182 | 143714
20 | 31:56.15 | 0:48.50 | 143715 | 147364
21 | 32:44.65 | 1:06.02 | 147365 | 152316
22 | 33:50.67 | 2:25.38 | 152317 | 163229
23 | 36:16.30 | 1:15.72 | 163230 | 168926
24 | 37:32.27 | 1:11.60 | 168927 | 174311
25 | 38:44.12 | 1:49.30 | 174312 | 182516
26 | 40:33.42 | 0:53.05 | 182517 | 186496
27 | 41:26.47 | 1:01.10 | 186497 | 191081
28 | 42:27.57 | 2:00.25 | 191082 | 200106
29 | 44:28.07 | 0:53.20 | 200107 | 204101
30 | 45:21.27 | 1:08.30 | 204102 | 209231
31 | 46:29.57 | 2:46.43 | 209232 | 221724
32 | 49:16.25 | 4:31.22 | 221725 | 242071
33 | 53:47.47 | 2:49.48 | 242072 | 254794
34 | 56:37.20 | 1:00.67 | 254795 | 259361
35 | 57:38.12 | 2:42.40 | 259362 | 271551
36 | 60:20.52 | 1:13.23 | 271552 | 277049
37 | 61:34.00 | 0:53.45 | 277050 | 281069
38 | 62:27.45 | 1:18.12 | 281070 | 286931
39 | 63:45.57 | 1:58.00 | 286932 | 295781
40 | 65:43.57 | 1:19.30 | 295782 | 301736
41 | 67:03.12 | 1:41.55 | 301737 | 309366
42 | 68:44.67 | 0:53.30 | 309367 | 313371
43 | 69:38.22 | 1:16.60 | 313372 | 319131
44 | 70:55.07 | 2:17.28 | 319132 | 329434
Range status and errors
Selected range
Filename D:\EAC\Janacek - The Diary of One Who Disappeared.wav
Peak level 86.0 %
Extraction speed 4.9 X
Range quality 100.0 %
Test CRC 65783AF6
Copy CRC 65783AF6
Copy OK
No errors occurred
AccurateRip summary
Track 1 accurately ripped (confidence 1) [ED4156F6] (AR v1)
Track 2 accurately ripped (confidence 1) [40AA3934] (AR v1)
Track 3 accurately ripped (confidence 1) [1A9BDB6B] (AR v1)
Track 4 accurately ripped (confidence 1) [DC5AD81E] (AR v1)
Track 5 accurately ripped (confidence 1) [7BF11D85] (AR v1)
Track 6 accurately ripped (confidence 1) [52711259] (AR v1)
Track 7 accurately ripped (confidence 1) [08435B77] (AR v1)
Track 8 accurately ripped (confidence 1) [67E41786] (AR v1)
Track 9 accurately ripped (confidence 1) [A9CC7401] (AR v1)
Track 10 accurately ripped (confidence 1) [14162620] (AR v1)
Track 11 accurately ripped (confidence 1) [1EC36CB4] (AR v1)
Track 12 accurately ripped (confidence 1) [FE810C2E] (AR v1)
Track 13 accurately ripped (confidence 1) [A464AC4B] (AR v1)
Track 14 accurately ripped (confidence 1) [4F1C060C] (AR v1)
Track 15 accurately ripped (confidence 1) [D663E4F4] (AR v1)
Track 16 accurately ripped (confidence 1) [A266DA0B] (AR v1)
Track 17 accurately ripped (confidence 1) [F43544F4] (AR v1)
Track 18 accurately ripped (confidence 1) [A3B17B3B] (AR v1)
Track 19 accurately ripped (confidence 1) [F7438296] (AR v1)
Track 20 accurately ripped (confidence 1) [FAB9E815] (AR v1)
Track 21 accurately ripped (confidence 1) [F1C08605] (AR v1)
Track 22 accurately ripped (confidence 1) [07BF1D78] (AR v1)
Track 23 accurately ripped (confidence 1) [9AC640AF] (AR v1)
Track 24 accurately ripped (confidence 1) [8D4764FF] (AR v1)
Track 25 accurately ripped (confidence 1) [966CAA6F] (AR v1)
Track 26 accurately ripped (confidence 1) [3553C808] (AR v1)
Track 27 accurately ripped (confidence 1) [DF05FEDC] (AR v1)
Track 28 accurately ripped (confidence 1) [B680CDD7] (AR v1)
Track 29 accurately ripped (confidence 1) [40975B2B] (AR v1)
Track 30 accurately ripped (confidence 1) [E376717E] (AR v1)
Track 31 accurately ripped (confidence 1) [B43F01D7] (AR v1)
Track 32 accurately ripped (confidence 1) [383BB40E] (AR v1)
Track 33 accurately ripped (confidence 1) [FEF95A4F] (AR v1)
Track 34 accurately ripped (confidence 1) [0BBBB01F] (AR v1)
Track 35 accurately ripped (confidence 1) [2B0AA58F] (AR v1)
Track 36 accurately ripped (confidence 1) [574D1AB9] (AR v1)
Track 37 accurately ripped (confidence 1) [3882AC85] (AR v1)
Track 38 accurately ripped (confidence 1) [43524756] (AR v1)
Track 39 accurately ripped (confidence 1) [679C3E39] (AR v1)
Track 40 accurately ripped (confidence 1) [7CB9F3EB] (AR v1)
Track 41 accurately ripped (confidence 1) [8DA8A5A1] (AR v1)
Track 42 accurately ripped (confidence 1) [4BF00B66] (AR v1)
Track 43 accurately ripped (confidence 1) [AF3CCFD2] (AR v1)
Track 44 accurately ripped (confidence 1) [307DF5AD] (AR v1)
All tracks accurately ripped
End of status report
---- CUETools DB Plugin V2.1.6
[CTDB TOCID: Xo4LDf4_O68MI7UpZ1029rbLofI-] disk not present in database
Submit result: unrecognized or virtual drive
==== Log checksum 37DE59C715FBAB5D6BD5C41A7D9F96EF3F0D033F926921DE1B3ADB963D5FED9A ====

Содержание индексной карты (.CUE)

REM GENRE Vocal
REM DISCID 9611282C
REM COMMENT "ExactAudioCopy v1.0b6"
PERFORMER "Gedda, Soukupova - Prague Radio Chorus, Kosler"
TITLE "Janacek - The Diary of One Who Disappeared"
FILE "Janacek - The Diary of One Who Disappeared.ape" WAVE
TRACK 01 AUDIO
TITLE "One day I met a Gypsy Girl. Andante"
PERFORMER "Gedda, Soukupova - Prague Radio Chorus, Kosler"
INDEX 00 00:00:00
INDEX 01 00:00:32
TRACK 02 AUDIO
TITLE "That black-eyed Gypsy. Con moto"
PERFORMER "Gedda, Soukupova - Prague Radio Chorus, Kosler"
INDEX 00 01:18:45
INDEX 01 01:20:42
TRACK 03 AUDIO
TITLE "Through the twilight glow-worms. Andante"
PERFORMER "Gedda, Soukupova - Prague Radio Chorus, Kosler"
INDEX 01 02:34:07
TRACK 04 AUDIO
TITLE "Already swallows are. Andante /att./"
PERFORMER "Gedda, Soukupova - Prague Radio Chorus, Kosler"
INDEX 00 04:20:55
INDEX 01 04:21:47
TRACK 05 AUDIO
TITLE "Weary work is ploughing. Adagio"
PERFORMER "Gedda, Soukupova - Prague Radio Chorus, Kosler"
INDEX 01 05:13:42
TRACK 06 AUDIO
TITLE "Hej, there my tawny oxen. Allegro"
PERFORMER "Gedda, Soukupova - Prague Radio Chorus, Kosler"
INDEX 01 06:01:12
TRACK 07 AUDIO
TITLE "I´ve got a loose axle. Con moto"
PERFORMER "Gedda, Soukupova - Prague Radio Chorus, Kosler"
INDEX 00 07:56:68
INDEX 01 07:59:00
TRACK 08 AUDIO
TITLE "Don´t look, my oxen. Andante"
PERFORMER "Gedda, Soukupova - Prague Radio Chorus, Kosler"
INDEX 00 08:56:10
INDEX 01 08:57:57
TRACK 09 AUDIO
TITLE "Welcome, my handsome one "
PERFORMER "Gedda, Soukupova - Prague Radio Chorus, Kosler"
INDEX 01 09:59:15
TRACK 10 AUDIO
TITLE "Good all-powerful, God eternal. Un poco piu mosso"
PERFORMER "Gedda, Soukupova - Prague Radio Chorus, Kosler"
INDEX 01 12:58:52
TRACK 11 AUDIO
TITLE "From the rip´ning cornfield. Con moto"
PERFORMER "Gedda, Soukupova - Prague Radio Chorus, Kosler"
INDEX 00 17:48:62
INDEX 01 17:50:07
TRACK 12 AUDIO
TITLE "Forest´s shady height /att./"
PERFORMER "Gedda, Soukupova - Prague Radio Chorus, Kosler"
INDEX 00 20:50:02
INDEX 01 20:53:07
TRACK 13 AUDIO
TITLE "Andante"
PERFORMER "Gedda, Soukupova - Prague Radio Chorus, Kosler"
INDEX 00 21:50:69
INDEX 01 21:51:67
TRACK 14 AUDIO
TITLE "See how high the sun is! Adagio"
PERFORMER "Gedda, Soukupova - Prague Radio Chorus, Kosler"
INDEX 01 24:24:20
TRACK 15 AUDIO
TITLE "Now my tawny oxen. Allegro"
PERFORMER "Gedda, Soukupova - Prague Radio Chorus, Kosler"
INDEX 01 25:22:10
TRACK 16 AUDIO
TITLE "What has come over me? Adagio"
PERFORMER "Gedda, Soukupova - Prague Radio Chorus, Kosler"
INDEX 01 26:11:70
TRACK 17 AUDIO
TITLE "Who can escape his fate. Recitativo /att./"
PERFORMER "Gedda, Soukupova - Prague Radio Chorus, Kosler"
INDEX 00 27:33:74
INDEX 01 27:34:70
TRACK 18 AUDIO
TITLE "Nothing matters now"
PERFORMER "Gedda, Soukupova - Prague Radio Chorus, Kosler"
INDEX 01 29:20:14
TRACK 19 AUDIO
TITLE "See that thieving magpie. Andante"
PERFORMER "Gedda, Soukupova - Prague Radio Chorus, Kosler"
INDEX 01 30:29:07
TRACK 20 AUDIO
TITLE "Now she bears my child. Con moto"
PERFORMER "Gedda, Soukupova - Prague Radio Chorus, Kosler"
INDEX 01 31:56:15
TRACK 21 AUDIO
TITLE "Father, how wrong you were. Meno mosso"
PERFORMER "Gedda, Soukupova - Prague Radio Chorus, Kosler"
INDEX 01 32:44:65
TRACK 22 AUDIO
TITLE "Then farewell, dearest land. Andante"
PERFORMER "Gedda, Soukupova - Prague Radio Chorus, Kosler"
INDEX 00 33:49:43
INDEX 01 33:50:67
TRACK 23 AUDIO
TITLE "One day I met a Gypsy Girl. Andante"
PERFORMER "Blachut, Stepanova - Prague Philharmonic Choir, Kühn"
INDEX 00 36:07:32
INDEX 01 36:16:30
TRACK 24 AUDIO
TITLE "That black-eyed Gypsy. Con moto"
PERFORMER "Blachut, Stepanova - Prague Philharmonic Choir, Kühn"
INDEX 01 37:32:27
TRACK 25 AUDIO
TITLE "Through the twilight glow-worms. Andante"
PERFORMER "Blachut, Stepanova - Prague Philharmonic Choir, Kühn"
INDEX 01 38:44:12
TRACK 26 AUDIO
TITLE "Already swallows are. Andante /att./"
PERFORMER "Blachut, Stepanova - Prague Philharmonic Choir, Kühn"
INDEX 01 40:33:42
TRACK 27 AUDIO
TITLE "Weary work is ploughing. Adagio"
PERFORMER "Blachut, Stepanova - Prague Philharmonic Choir, Kühn"
INDEX 01 41:26:47
TRACK 28 AUDIO
TITLE "Hej, there my tawny oxen. Allegro"
PERFORMER "Blachut, Stepanova - Prague Philharmonic Choir, Kühn"
INDEX 01 42:27:57
TRACK 29 AUDIO
TITLE "I´ve got a loose axle. Con moto"
PERFORMER "Blachut, Stepanova - Prague Philharmonic Choir, Kühn"
INDEX 00 44:25:65
INDEX 01 44:28:07
TRACK 30 AUDIO
TITLE "Don´t look, my oxen. Andante"
PERFORMER "Blachut, Stepanova - Prague Philharmonic Choir, Kühn"
INDEX 01 45:21:27
TRACK 31 AUDIO
TITLE "Welcome, my handsome one"
PERFORMER "Blachut, Stepanova - Prague Philharmonic Choir, Kühn"
INDEX 01 46:29:57
TRACK 32 AUDIO
TITLE "Good all-powerful, God eternal. Un poco piu mosso"
PERFORMER "Blachut, Stepanova - Prague Philharmonic Choir, Kühn"
INDEX 01 49:16:25
TRACK 33 AUDIO
TITLE "From the rip´ning cornfield. Con moto"
PERFORMER "Blachut, Stepanova - Prague Philharmonic Choir, Kühn"
INDEX 00 53:46:18
INDEX 01 53:47:47
TRACK 34 AUDIO
TITLE "Forest´s shady height /att./"
PERFORMER "Blachut, Stepanova - Prague Philharmonic Choir, Kühn"
INDEX 00 56:34:45
INDEX 01 56:37:20
TRACK 35 AUDIO
TITLE "Andante "
PERFORMER "Blachut, Stepanova - Prague Philharmonic Choir, Kühn"
INDEX 00 57:36:26
INDEX 01 57:38:12
TRACK 36 AUDIO
TITLE "See how high the sun is! Adagio"
PERFORMER "Blachut, Stepanova - Prague Philharmonic Choir, Kühn"
INDEX 01 60:20:52
TRACK 37 AUDIO
TITLE "Now my tawny oxen. Allegro"
PERFORMER "Blachut, Stepanova - Prague Philharmonic Choir, Kühn"
INDEX 01 61:34:00
TRACK 38 AUDIO
TITLE "What has come over me? Adagio"
PERFORMER "Blachut, Stepanova - Prague Philharmonic Choir, Kühn"
INDEX 00 62:25:52
INDEX 01 62:27:45
TRACK 39 AUDIO
TITLE "Who can escape his fate. Recitativo /att./"
PERFORMER "Blachut, Stepanova - Prague Philharmonic Choir, Kühn"
INDEX 00 63:43:72
INDEX 01 63:45:57
TRACK 40 AUDIO
TITLE "Nothing matters now"
PERFORMER "Blachut, Stepanova - Prague Philharmonic Choir, Kühn"
INDEX 01 65:43:57
TRACK 41 AUDIO
TITLE "See that thieving magpie. Andante"
PERFORMER "Blachut, Stepanova - Prague Philharmonic Choir, Kühn"
INDEX 00 67:00:10
INDEX 01 67:03:12
TRACK 42 AUDIO
TITLE "Now she bears my child. Con moto"
PERFORMER "Blachut, Stepanova - Prague Philharmonic Choir, Kühn"
INDEX 00 68:41:22
INDEX 01 68:44:67
TRACK 43 AUDIO
TITLE "Father, how wrong you were. Meno mosso"
PERFORMER "Blachut, Stepanova - Prague Philharmonic Choir, Kühn"
INDEX 01 69:38:22
TRACK 44 AUDIO
TITLE "Then farewell, dearest land. Andante"
PERFORMER "Blachut, Stepanova - Prague Philharmonic Choir, Kühn"
INDEX 00 70:52:07
INDEX 01 70:55:07



Показать сообщения:    

Текущее время: 09-Дек 10:49

Часовой пояс: UTC + 3


Вы не можете начинать темы
Вы не можете отвечать на сообщения
Вы не можете редактировать свои сообщения
Вы не можете удалять свои сообщения
Вы не можете голосовать в опросах
Вы не можете прикреплять файлы к сообщениям
Вы не можете скачивать файлы