(Operetta) Kalman - Das Hollandweibchen (Scheyrer, Macha, Fuss, Kostler - Gemischter Chor / Grosses Wiener Rundfunkorchester, Schönherr) • Bonustracks: Historical Recordings (1909-1932) - 2006, APE (image+.cue) lossless


 

[Цитировать]

Emmerich Kálmán - Das Hollandweibchen
Жанр: Operetta
Страна-производитель диска: Portugal
Год издания диска: 2006
Издатель (лейбл): Gala
Номер по каталогу: GL 100.780
Аудиокодек: APE
Тип рипа: image+.cue
Битрейт аудио: lossless
Продолжительность: 79'43+77'23
Источник: собственный рип
Наличие сканов в содержимом раздачи: да
Треклист:

CD1

ERSTER AKT
1. Nr. 1 Introduktion
2. Dialog
3. Dialog
4. Fürstin und Braut
5. Dialog
6. Dialog
7. Nr. 2 Duett: jedes Mädchen träumt von Einem
8. Dialog
9. Dialog
10. Nr. 3 Marschlied: Weiber gibst zum Teufel holen
11. Dialog
12. Nr. 4 Duett: Wenn im Wald froh erschallt
13. Dialog
14. Dialog
15. Nr. 5 Lied: Lacht uns der Mond heut' ins Brautkämmerlein
16. Dialog
17. Nr. 6 Finale I: In Liebe grüssen wir dich, o junge Braut
18. lch heisse Sie willkommen
19. Dialog
20. Jetzt ist es sechs Uhr dreissig / jubel tont im ganzen Land
21. lch danke Euch, ich dank' Euch Allen! / Dialog
22. Dialog / Das war ein Traum!
23. Dialog
ZWEITER AKT
24. Nr. 7 Tanz der Hollànderinnen
25. Dialog
26. Nr. 8 Lied: Fröhlich bin ich durch die welt gewandelt
27. Dialog
28. Nr. 10 Terzett: Amsterdam und Rotterdam
29. Dialog / Nr. 81/2 Melodramatische Szene und Lied: Stand das Fräulein am blauen Meere
30. Nr. 9 Duett: Stand das Fräulein am blauen Meere
31. Dialog
32. Nr. 12 Duett: Das hätt' ich mir nie gedacht
33. Dialog
34. Nr. 13 Finale II: Mein musst du werden
35. Dialog
36. Mein musst du werden

CD2

1. Dialog
2. Nun so hören sie mich an
DRITTER AKT
3. Dialog
4. Nr. 14 Musikalische Szene: Geliebter in der Ferne
5. Dialog
6. Nr. 15 Ouartett: Lockend soll ertönen
7. Dialog
8. Nr. 16 Schlussgesang: Hollandweibchen mit dem Häubchen
Исполнители:
Emmerich Kálmán - Das Hollandweibchen
Operette in drei Akten
Libretto: Leo Stein & Bela jenbach
Prinzessin jutta von Sonneburq-Glücksburq - Gerda Scheyrer
Baroness Elly von der Weijde, die erste Hofdame - Else Macha
Hofmarschall von Eberius - Harry Fuss
Fürst Adalbert, juttas Onkel - Karl Köstler
Obersthofmeister von Stopp - Kurt Preqer
Paul Roderich, Erbprinz von Usingen - Hubert Paule
Dr. Udo von Sterzei, Botschafter von Usingen - Toni Niessner
Seeborg - Edi Brosch-Shorp
Grosses Wiener Rundfunkorchester
Gemischter Chor
Max Schönherr
Vienna,ORF
Bonus Tracks: Emmerich Kálmán
Historical Recordings
(1909-1932)
Gräfin Mariza
9. Du hast in deinen Augen den Himmel und das Glück
Hubert Marischka mit Frank Fox & seinem Orchester
Ca. September 5, 1932
Ronny
10. Du bist das Liebste
Willy Fritsch mit Orchester
Dir. Otto Dobrindt
December 12, 1931
Das Veilchen vom Montmartre
11. Warum weiB dein Herz nichts von mir?
Gitta Alpár mit Orchester
Dir. Frieder Weissmann
February 27, 1931
12. Heut' Nacht hab' ich geträumt von Dir
Hans Heinz Bollmann mit Orchester
Ca. August, 1930
Die Herzogin von Chicago
13. Ein kleiner Slowfox mit Mary
Rita Georg mit Orchester
October 23, 1928
14. Wiener Musik
Jozsef Gábór mit orchester
Ca. October, 1928
15. Wir Ladies aud Amerika
Gisa Bergmann mit Orchester
Dir. Otto Dobrindt
june 6, 1928
Gräfin Mariza
16. GrüB' mir die sussen, die reizenden Frauen
Alfred Dörner mit Orchester
November 5, 1924
17. Komm Zigány
Max Hansen mit Original-Zigeunerkapelle Horváth Sándor
Ca. October, 1924
Die Bajadere
18. Deine dunklen Augen
Max Willenz & Peggy Permond mit orchester
March, 1922
Die Fasschingsfee
19. Loreley
Eugen Rex & Molly Wessely mit Orchester
Dir. Bruno Seidler-winkler
October 9, 1918
20. Was Männer lieben (Der Frauen Reize)
Fritzi Massary mit Orchester
Dir. Bruno Seidler-wlnkler
September, 1918
Die Csárdásfürstin
21. Jaj mamám
Pepi Ludl & Hermann Vallentin mit Orchester
Dir. Bruno Seidler-Winkler
Ca. October, 1916
22. Ja, so ein Teufelsweib
Fritzi Massary mit Orchester
Dir. Bruno Seidler-winkler
Ca. October, 1916
23. Mädel gibt es wunderfeine
Albert Kutzner mit Orchester
September 28, 1916
24. Die Mädis vom Chantant
Johannes Müller & Katharina Garden mit Orchester
1916
Der kleine König
25. Kamm, Lilli, setz' dich
Louise Kartousch mit Orchester
Wien, january, 1913
Der Zigeunerprimas
26. 0 kornrn mit mir und Tanz' mit mir ins Himmelreich
Gerda Walde & Josef Victora mit Orchester
Wien, December 26, 1912
Ein Herbstmanöver
27. Das ist mein Freund, der Löbl
Max Pallenberg mit Orchester
Dir. Emmerich Kálmán
Wien, February 4, 1909

Лог создания рипа

CD1

Exact Audio Copy V1.0 beta 6 from 9. April 2015
EAC extraction logfile from 22. September 2015, 16:16
Scheyrer, Macha, Fuss, Köstler_Grosses Wiener Rundfunkorchester, Schönherr / Kálmán - Das Hollandweibchen, Schönherr CD1
Used drive : TSSTcorpCDDVDW SE-208AB Adapter: 1 ID: 2
Read mode : Secure
Utilize accurate stream : Yes
Defeat audio cache : Yes
Make use of C2 pointers : No
Read offset correction : 6
Overread into Lead-In and Lead-Out : No
Fill up missing offset samples with silence : Yes
Delete leading and trailing silent blocks : No
Null samples used in CRC calculations : Yes
Used interface : Native Win32 interface for Win NT & 2000
Used output format : Monkey's Audio Lossless Encoder
Selected bitrate : High Lossless Compression
Quality : High
Add ID3 tag : Yes
Command line compressor : C:\Program Files (x86)\Exact Audio Copy\MAC\MAC.exe
TOC of the extracted CD
Track | Start | Length | Start sector | End sector
---------------------------------------------------------
1 | 0:00.00 | 0:44.41 | 0 | 3340
2 | 0:44.41 | 1:13.47 | 3341 | 8862
3 | 1:58.13 | 0:54.45 | 8863 | 12957
4 | 2:52.58 | 1:04.07 | 12958 | 17764
5 | 3:56.65 | 0:56.49 | 17765 | 22013
6 | 4:53.39 | 0:30.09 | 22014 | 24272
7 | 5:23.48 | 4:20.45 | 24273 | 43817
8 | 9:44.18 | 1:46.37 | 43818 | 51804
9 | 11:30.55 | 2:37.43 | 51805 | 63622
10 | 14:08.23 | 3:30.34 | 63623 | 79406
11 | 17:38.57 | 2:52.26 | 79407 | 92332
12 | 20:31.08 | 2:42.08 | 92333 | 104490
13 | 23:13.16 | 0:46.42 | 104491 | 107982
14 | 23:59.58 | 0:19.10 | 107983 | 109417
15 | 24:18.68 | 2:43.10 | 109418 | 121652
16 | 27:02.03 | 0:21.30 | 121653 | 123257
17 | 27:23.33 | 3:27.31 | 123258 | 138813
18 | 30:50.64 | 5:20.62 | 138814 | 162875
19 | 36:11.51 | 2:40.72 | 162876 | 174947
20 | 38:52.48 | 4:02.59 | 174948 | 193156
21 | 42:55.32 | 1:27.50 | 193157 | 199731
22 | 44:23.07 | 1:51.38 | 199732 | 208094
23 | 46:14.45 | 0:14.16 | 208095 | 209160
24 | 46:28.61 | 1:08.11 | 209161 | 214271
25 | 47:36.72 | 2:20.57 | 214272 | 224828
26 | 49:57.54 | 2:22.01 | 224829 | 235479
27 | 52:19.55 | 3:45.61 | 235480 | 252415
28 | 56:05.41 | 2:19.10 | 252416 | 262850
29 | 58:24.51 | 2:40.10 | 262851 | 274860
30 | 61:04.61 | 3:46.00 | 274861 | 291810
31 | 64:50.61 | 5:28.23 | 291811 | 316433
32 | 70:19.09 | 2:12.52 | 316434 | 326385
33 | 72:31.61 | 0:44.73 | 326386 | 329758
34 | 73:16.59 | 3:03.53 | 329759 | 343536
35 | 76:20.37 | 0:42.15 | 343537 | 346701
36 | 77:02.52 | 2:40.35 | 346702 | 358736
Range status and errors
Selected range
Filename D:\EAC\Kálmán - Das Hollandweibchen, Schönherr CD1.wav
Peak level 100.0 %
Extraction speed 5.0 X
Range quality 100.0 %
Test CRC 1EF1210F
Copy CRC 1EF1210F
Copy OK
No errors occurred
AccurateRip summary
Track 1 accurately ripped (confidence 1) [C4386F35] (AR v1)
Track 2 accurately ripped (confidence 1) [A2777CF3] (AR v1)
Track 3 accurately ripped (confidence 1) [54514C94] (AR v1)
Track 4 accurately ripped (confidence 1) [5B93C501] (AR v1)
Track 5 accurately ripped (confidence 1) [36593767] (AR v1)
Track 6 accurately ripped (confidence 1) [82B810C3] (AR v1)
Track 7 accurately ripped (confidence 1) [4C8046CF] (AR v1)
Track 8 accurately ripped (confidence 1) [6E667AFD] (AR v1)
Track 9 accurately ripped (confidence 1) [02B8620C] (AR v1)
Track 10 accurately ripped (confidence 1) [9BF13C9B] (AR v1)
Track 11 accurately ripped (confidence 1) [2937B998] (AR v1)
Track 12 accurately ripped (confidence 1) [F1C3D99F] (AR v1)
Track 13 accurately ripped (confidence 1) [A4A371E6] (AR v1)
Track 14 accurately ripped (confidence 1) [E9D66A21] (AR v1)
Track 15 accurately ripped (confidence 1) [F2AEDEB0] (AR v1)
Track 16 accurately ripped (confidence 1) [CD27B11C] (AR v1)
Track 17 accurately ripped (confidence 1) [887914C6] (AR v1)
Track 18 accurately ripped (confidence 1) [0E71DE39] (AR v1)
Track 19 accurately ripped (confidence 1) [CA0758C1] (AR v1)
Track 20 accurately ripped (confidence 1) [5D01E41D] (AR v1)
Track 21 accurately ripped (confidence 1) [FB5B8C82] (AR v1)
Track 22 accurately ripped (confidence 1) [170FB49D] (AR v1)
Track 23 accurately ripped (confidence 1) [FFAF950E] (AR v1)
Track 24 accurately ripped (confidence 1) [F7BDBD6D] (AR v1)
Track 25 accurately ripped (confidence 1) [826D05CD] (AR v1)
Track 26 accurately ripped (confidence 1) [F87EC446] (AR v1)
Track 27 accurately ripped (confidence 1) [81EDB9DF] (AR v1)
Track 28 accurately ripped (confidence 1) [29B9775E] (AR v1)
Track 29 accurately ripped (confidence 1) [04894CDD] (AR v1)
Track 30 accurately ripped (confidence 1) [672E9537] (AR v1)
Track 31 accurately ripped (confidence 1) [4C6197F0] (AR v1)
Track 32 accurately ripped (confidence 1) [2EAE2B43] (AR v1)
Track 33 accurately ripped (confidence 1) [EB816004] (AR v1)
Track 34 accurately ripped (confidence 1) [517BEEB1] (AR v1)
Track 35 accurately ripped (confidence 1) [072D04E4] (AR v1)
Track 36 accurately ripped (confidence 1) [6A9E34EA] (AR v1)
All tracks accurately ripped
End of status report
---- CUETools DB Plugin V2.1.6
[CTDB TOCID: iyRalfw_Y6rKciyenRflqbeGYRE-] disk not present in database
Submit result: iyRalfw_Y6rKciyenRflqbeGYRE- has been uploaded
==== Log checksum D0E3809C64E0B2C53391252528FB54C991D27A2B783C86996FE79B94271F59A4 ====

CD2

Exact Audio Copy V1.0 beta 6 from 9. April 2015
EAC extraction logfile from 22. September 2015, 16:15
Scheyrer, Macha, Fuss, Köstler_Grosses Wiener Rundfunkorchester, Schönherr / Kálmán - Das Hollandweibchen, Schönherr CD2
Used drive : TS8XDVDSTRANSCEND Adapter: 1 ID: 1
Read mode : Secure
Utilize accurate stream : Yes
Defeat audio cache : Yes
Make use of C2 pointers : No
Read offset correction : 6
Overread into Lead-In and Lead-Out : No
Fill up missing offset samples with silence : Yes
Delete leading and trailing silent blocks : No
Null samples used in CRC calculations : Yes
Used interface : Native Win32 interface for Win NT & 2000
Used output format : Monkey's Audio Lossless Encoder
Selected bitrate : High Lossless Compression
Quality : High
Add ID3 tag : Yes
Command line compressor : C:\Program Files (x86)\Exact Audio Copy\MAC\MAC.exe
TOC of the extracted CD
Track | Start | Length | Start sector | End sector
---------------------------------------------------------
1 | 0:00.00 | 0:37.27 | 0 | 2801
2 | 0:37.27 | 4:30.20 | 2802 | 23071
3 | 5:07.47 | 1:59.08 | 23072 | 32004
4 | 7:06.55 | 1:16.21 | 32005 | 37725
5 | 8:23.01 | 4:19.00 | 37726 | 57150
6 | 12:42.01 | 2:25.73 | 57151 | 68098
7 | 15:07.74 | 1:11.48 | 68099 | 73471
8 | 16:19.47 | 1:03.05 | 73472 | 78201
9 | 17:22.52 | 3:12.40 | 78202 | 92641
10 | 20:35.17 | 3:17.18 | 92642 | 107434
11 | 23:52.35 | 3:13.47 | 107435 | 121956
12 | 27:06.07 | 4:17.47 | 121957 | 141278
13 | 31:23.54 | 3:01.63 | 141279 | 154916
14 | 34:25.42 | 2:51.50 | 154917 | 167791
15 | 37:17.17 | 2:57.14 | 167792 | 181080
16 | 40:14.31 | 3:35.51 | 181081 | 197256
17 | 43:50.07 | 3:24.17 | 197257 | 212573
18 | 47:14.24 | 3:48.07 | 212574 | 229680
19 | 51:02.31 | 2:42.35 | 229681 | 241865
20 | 53:44.66 | 2:54.10 | 241866 | 254925
21 | 56:39.01 | 2:55.05 | 254926 | 268055
22 | 59:34.06 | 2:48.35 | 268056 | 280690
23 | 62:22.41 | 2:58.03 | 280691 | 294043
24 | 65:20.44 | 3:09.18 | 294044 | 308236
25 | 68:29.62 | 3:03.44 | 308237 | 322005
26 | 71:33.31 | 2:50.10 | 322006 | 334765
27 | 74:23.41 | 3:00.23 | 334766 | 348288
Range status and errors
Selected range
Filename D:\EAC\Kálmán - Das Hollandweibchen, Schönherr CD2.wav
Peak level 100.0 %
Extraction speed 5.0 X
Range quality 100.0 %
Test CRC 2B606C82
Copy CRC 2B606C82
Copy OK
No errors occurred
AccurateRip summary
Track 1 accurately ripped (confidence 1) [CE7F6A0B] (AR v1)
Track 2 accurately ripped (confidence 1) [A24E1231] (AR v1)
Track 3 accurately ripped (confidence 1) [5461A360] (AR v1)
Track 4 accurately ripped (confidence 1) [CBAE8E7F] (AR v1)
Track 5 accurately ripped (confidence 1) [0BE947E4] (AR v1)
Track 6 accurately ripped (confidence 1) [C29A08AF] (AR v1)
Track 7 accurately ripped (confidence 1) [6B2E5948] (AR v1)
Track 8 accurately ripped (confidence 1) [9E0753A7] (AR v1)
Track 9 accurately ripped (confidence 1) [224CE367] (AR v1)
Track 10 accurately ripped (confidence 1) [C27F2636] (AR v1)
Track 11 accurately ripped (confidence 1) [CF54A057] (AR v1)
Track 12 accurately ripped (confidence 1) [940B6AF5] (AR v1)
Track 13 accurately ripped (confidence 1) [02F4F8D6] (AR v1)
Track 14 accurately ripped (confidence 1) [BD85BC10] (AR v1)
Track 15 accurately ripped (confidence 1) [E44B80C2] (AR v1)
Track 16 accurately ripped (confidence 1) [47A8938E] (AR v1)
Track 17 accurately ripped (confidence 1) [4EB6EE63] (AR v1)
Track 18 accurately ripped (confidence 1) [2B5166E6] (AR v1)
Track 19 accurately ripped (confidence 1) [9EBB0C4A] (AR v1)
Track 20 accurately ripped (confidence 1) [2DC54221] (AR v1)
Track 21 accurately ripped (confidence 1) [8EA372C9] (AR v1)
Track 22 accurately ripped (confidence 1) [230ACD40] (AR v1)
Track 23 accurately ripped (confidence 1) [513D1904] (AR v1)
Track 24 accurately ripped (confidence 1) [0E06F916] (AR v1)
Track 25 accurately ripped (confidence 1) [E58F25DD] (AR v1)
Track 26 accurately ripped (confidence 1) [5D506B36] (AR v1)
Track 27 accurately ripped (confidence 1) [827CF5F6] (AR v1)
All tracks accurately ripped
End of status report
---- CUETools DB Plugin V2.1.6
[CTDB TOCID: kgNI9ZbPgHfTVtT9bHD5yJFXn3U-] disk not present in database
Submit result: unrecognized or virtual drive
==== Log checksum 2E9F2E4D3364074E05CBA19A255F43019D23ED478DC5A486B06AFF57E6C1E97E ====

Содержание индексной карты (.CUE)

CD1

REM GENRE Operetta
REM DISCID 1E12AF24
REM COMMENT "ExactAudioCopy v1.0b6"
PERFORMER "Scheyrer, Macha, Fuss, Köstler_Grosses Wiener Rundfunkorchester, Schönherr"
TITLE "Kálmán - Das Hollandweibchen, Schönherr CD1"
FILE "Kálmán - Das Hollandweibchen, Schönherr CD1.ape" WAVE
TRACK 01 AUDIO
TITLE "Act 1: Nr. 1 Introduktion"
PERFORMER "Scheyrer, Macha, Fuss, Köstler_Grosses Wiener Rundfunkorchester, Schönherr"
INDEX 01 00:00:00
TRACK 02 AUDIO
TITLE "Dialog"
PERFORMER "Scheyrer, Macha, Fuss, Köstler_Grosses Wiener Rundfunkorchester, Schönherr"
INDEX 01 00:44:41
TRACK 03 AUDIO
TITLE "Dialog"
PERFORMER "Scheyrer, Macha, Fuss, Köstler_Grosses Wiener Rundfunkorchester, Schönherr"
INDEX 01 01:58:13
TRACK 04 AUDIO
TITLE "Fürstin und Braut"
PERFORMER "Scheyrer, Macha, Fuss, Köstler_Grosses Wiener Rundfunkorchester, Schönherr"
INDEX 01 02:52:58
TRACK 05 AUDIO
TITLE "Dialog"
PERFORMER "Scheyrer, Macha, Fuss, Köstler_Grosses Wiener Rundfunkorchester, Schönherr"
INDEX 01 03:56:65
TRACK 06 AUDIO
TITLE "Dialog"
PERFORMER "Scheyrer, Macha, Fuss, Köstler_Grosses Wiener Rundfunkorchester, Schönherr"
INDEX 01 04:53:39
TRACK 07 AUDIO
TITLE "Nr. 2 Duett: jedes Mädchen träumt von Einem"
PERFORMER "Scheyrer, Macha, Fuss, Köstler_Grosses Wiener Rundfunkorchester, Schönherr"
INDEX 01 05:23:48
TRACK 08 AUDIO
TITLE "Dialog"
PERFORMER "Scheyrer, Macha, Fuss, Köstler_Grosses Wiener Rundfunkorchester, Schönherr"
INDEX 01 09:44:18
TRACK 09 AUDIO
TITLE "Dialog"
PERFORMER "Scheyrer, Macha, Fuss, Köstler_Grosses Wiener Rundfunkorchester, Schönherr"
INDEX 01 11:30:55
TRACK 10 AUDIO
TITLE "Nr. 3 Marschlied: Weiber gibst zum Teufel holen"
PERFORMER "Scheyrer, Macha, Fuss, Köstler_Grosses Wiener Rundfunkorchester, Schönherr"
INDEX 01 14:08:23
TRACK 11 AUDIO
TITLE "Dialog"
PERFORMER "Scheyrer, Macha, Fuss, Köstler_Grosses Wiener Rundfunkorchester, Schönherr"
INDEX 01 17:38:57
TRACK 12 AUDIO
TITLE "Nr. 4 Duett: Wenn im Wald froh erschallt"
PERFORMER "Scheyrer, Macha, Fuss, Köstler_Grosses Wiener Rundfunkorchester, Schönherr"
INDEX 01 20:31:08
TRACK 13 AUDIO
TITLE "Dialog"
PERFORMER "Scheyrer, Macha, Fuss, Köstler_Grosses Wiener Rundfunkorchester, Schönherr"
INDEX 01 23:13:16
TRACK 14 AUDIO
TITLE "Dialog"
PERFORMER "Scheyrer, Macha, Fuss, Köstler_Grosses Wiener Rundfunkorchester, Schönherr"
INDEX 01 23:59:58
TRACK 15 AUDIO
TITLE "Nr. 5 Lied: Lacht uns der Mond heut' ins Brautkämmerlein"
PERFORMER "Scheyrer, Macha, Fuss, Köstler_Grosses Wiener Rundfunkorchester, Schönherr"
INDEX 01 24:18:68
TRACK 16 AUDIO
TITLE "Dialog"
PERFORMER "Scheyrer, Macha, Fuss, Köstler_Grosses Wiener Rundfunkorchester, Schönherr"
INDEX 01 27:02:03
TRACK 17 AUDIO
TITLE "Nr. 6 Finale I: In Liebe grüssen wir dich, o junge Braut"
PERFORMER "Scheyrer, Macha, Fuss, Köstler_Grosses Wiener Rundfunkorchester, Schönherr"
INDEX 01 27:23:33
TRACK 18 AUDIO
TITLE "lch heisse Sie willkommen"
PERFORMER "Scheyrer, Macha, Fuss, Köstler_Grosses Wiener Rundfunkorchester, Schönherr"
INDEX 01 30:50:64
TRACK 19 AUDIO
TITLE "Dialog"
PERFORMER "Scheyrer, Macha, Fuss, Köstler_Grosses Wiener Rundfunkorchester, Schönherr"
INDEX 01 36:11:51
TRACK 20 AUDIO
TITLE "etzt ist es sechs Uhr dreissig / jubel tont im ganzen Land"
PERFORMER "Scheyrer, Macha, Fuss, Köstler_Grosses Wiener Rundfunkorchester, Schönherr"
INDEX 01 38:52:48
TRACK 21 AUDIO
TITLE "lch danke Euch, ich dank' Euch Allen! / Dialog"
PERFORMER "Scheyrer, Macha, Fuss, Köstler_Grosses Wiener Rundfunkorchester, Schönherr"
INDEX 01 42:55:32
TRACK 22 AUDIO
TITLE "Dialog"
PERFORMER "Scheyrer, Macha, Fuss, Köstler_Grosses Wiener Rundfunkorchester, Schönherr"
INDEX 01 44:23:07
TRACK 23 AUDIO
TITLE "Dialog"
PERFORMER "Scheyrer, Macha, Fuss, Köstler_Grosses Wiener Rundfunkorchester, Schönherr"
INDEX 01 46:14:45
TRACK 24 AUDIO
TITLE "Act 2: Nr. 7 Tanz der Hollànderinnen"
PERFORMER "Scheyrer, Macha, Fuss, Köstler_Grosses Wiener Rundfunkorchester, Schönherr"
INDEX 01 46:28:61
TRACK 25 AUDIO
TITLE "Dialog"
PERFORMER "Scheyrer, Macha, Fuss, Köstler_Grosses Wiener Rundfunkorchester, Schönherr"
INDEX 01 47:36:72
TRACK 26 AUDIO
TITLE "Nr. 8 Lied: Fröhlich bin ich durch die welt gewandelt"
PERFORMER "Scheyrer, Macha, Fuss, Köstler_Grosses Wiener Rundfunkorchester, Schönherr"
INDEX 01 49:57:54
TRACK 27 AUDIO
TITLE "Dialog"
PERFORMER "Scheyrer, Macha, Fuss, Köstler_Grosses Wiener Rundfunkorchester, Schönherr"
INDEX 01 52:19:55
TRACK 28 AUDIO
TITLE "Nr. 10 Terzett: Amsterdam und Rotterdam"
PERFORMER "Scheyrer, Macha, Fuss, Köstler_Grosses Wiener Rundfunkorchester, Schönherr"
INDEX 01 56:05:41
TRACK 29 AUDIO
TITLE "Dialog / Nr. 81/2 Melodramatische Szene und Lied: Stand das Fräulein am blaue..."
PERFORMER "Scheyrer, Macha, Fuss, Köstler_Grosses Wiener Rundfunkorchester, Schönherr"
INDEX 01 58:24:51
TRACK 30 AUDIO
TITLE "Nr. 9 Duett: Stand das Fräulein am blauen Meere"
PERFORMER "Scheyrer, Macha, Fuss, Köstler_Grosses Wiener Rundfunkorchester, Schönherr"
INDEX 01 61:04:61
TRACK 31 AUDIO
TITLE "Dialog"
PERFORMER "Scheyrer, Macha, Fuss, Köstler_Grosses Wiener Rundfunkorchester, Schönherr"
INDEX 01 64:50:61
TRACK 32 AUDIO
TITLE "Nr. 12 Duett: Das hätt' ich mir nie gedacht"
PERFORMER "Scheyrer, Macha, Fuss, Köstler_Grosses Wiener Rundfunkorchester, Schönherr"
INDEX 01 70:19:09
TRACK 33 AUDIO
TITLE "Dialog"
PERFORMER "Scheyrer, Macha, Fuss, Köstler_Grosses Wiener Rundfunkorchester, Schönherr"
INDEX 01 72:31:61
TRACK 34 AUDIO
TITLE "Nr. 13 Finale II: Mein musst du werden"
PERFORMER "Scheyrer, Macha, Fuss, Köstler_Grosses Wiener Rundfunkorchester, Schönherr"
INDEX 01 73:16:59
TRACK 35 AUDIO
TITLE "Dialog"
PERFORMER "Scheyrer, Macha, Fuss, Köstler_Grosses Wiener Rundfunkorchester, Schönherr"
INDEX 01 76:20:37
TRACK 36 AUDIO
TITLE "Mein musst du werden"
PERFORMER "Scheyrer, Macha, Fuss, Köstler_Grosses Wiener Rundfunkorchester, Schönherr"
INDEX 01 77:02:52

CD2

REM GENRE Operetta
REM DISCID 8412231B
REM COMMENT "ExactAudioCopy v1.0b6"
PERFORMER "Scheyrer, Macha, Fuss, Köstler_Grosses Wiener Rundfunkorchester, Schönherr"
TITLE "Kálmán - Das Hollandweibchen, Schönherr CD2"
FILE "Kálmán - Das Hollandweibchen, Schönherr CD2.ape" WAVE
TRACK 01 AUDIO
TITLE "Dialog"
PERFORMER "Scheyrer, Macha, Fuss, Köstler_Grosses Wiener Rundfunkorchester, Schönherr"
INDEX 01 00:00:00
TRACK 02 AUDIO
TITLE "Nun so hören sie mich an"
PERFORMER "Scheyrer, Macha, Fuss, Köstler_Grosses Wiener Rundfunkorchester, Schönherr"
INDEX 01 00:37:27
TRACK 03 AUDIO
TITLE "Act 3: Dialog"
PERFORMER "Scheyrer, Macha, Fuss, Köstler_Grosses Wiener Rundfunkorchester, Schönherr"
INDEX 01 05:07:47
TRACK 04 AUDIO
TITLE "Nr. 14 Musikalische Szene: Geliebter in der Ferne"
PERFORMER "Scheyrer, Macha, Fuss, Köstler_Grosses Wiener Rundfunkorchester, Schönherr"
INDEX 01 07:06:55
TRACK 05 AUDIO
TITLE "Dialog"
PERFORMER "Scheyrer, Macha, Fuss, Köstler_Grosses Wiener Rundfunkorchester, Schönherr"
INDEX 01 08:23:01
TRACK 06 AUDIO
TITLE "Nr. 15 Ouartett: Lockend soll ertönen"
PERFORMER "Scheyrer, Macha, Fuss, Köstler_Grosses Wiener Rundfunkorchester, Schönherr"
INDEX 01 12:42:01
TRACK 07 AUDIO
TITLE "Dialog"
PERFORMER "Scheyrer, Macha, Fuss, Köstler_Grosses Wiener Rundfunkorchester, Schönherr"
INDEX 01 15:07:74
TRACK 08 AUDIO
TITLE "Nr. 16 Schlussgesang: Hollandweibchen mit dem Häubchen"
PERFORMER "Scheyrer, Macha, Fuss, Köstler_Grosses Wiener Rundfunkorchester, Schönherr"
INDEX 01 16:19:47
TRACK 09 AUDIO
TITLE "Bonus: Gräfin Mariza_Du hast in deinen Augen den Himmel und das Glück"
PERFORMER "Hubert Marischka mit Frank Fox & seinem Orchester, Dobrindt "
INDEX 01 17:22:52
TRACK 10 AUDIO
TITLE "Ronny_Du bist das Liebste"
PERFORMER "Willy Fritsch mit Orchester "
INDEX 01 20:35:17
TRACK 11 AUDIO
TITLE "Das Veilchen vom Montmartre_Warum weiB dein Herz nichts von mir?"
PERFORMER "Gitta Alpár mit Orchester, Weissmann"
INDEX 01 23:52:35
TRACK 12 AUDIO
TITLE "Das Veilchen vom Montmartre_Heut' Nacht hab' ich geträumt von Dir"
PERFORMER "Hans Heinz Bollmann mit Orchester"
INDEX 01 27:06:07
TRACK 13 AUDIO
TITLE "Die Herzogin von Chicago_Ein kleiner Slowfox mit Mary"
PERFORMER "Rita Georg mit Orchester"
INDEX 01 31:23:54
TRACK 14 AUDIO
TITLE "Die Herzogin von Chicago_Wiener Musik"
PERFORMER "Jozsef Gábór mit orchester"
INDEX 01 34:25:42
TRACK 15 AUDIO
TITLE "Die Herzogin von Chicago_Wir Ladies aud Amerika"
PERFORMER "Gisa Bergmann mit Orcheste, Dobrindt"
INDEX 01 37:17:17
TRACK 16 AUDIO
TITLE "Gräfin Mariza_GrüB' mir die sussen, die reizenden Frauen"
PERFORMER "Alfred Dörner mit Orchester"
INDEX 01 40:14:31
TRACK 17 AUDIO
TITLE "Gräfin Mariza_Komm Zigány"
PERFORMER "Max Hansen mit Original-Zigeunerkapelle Horváth Sándor"
INDEX 01 43:50:07
TRACK 18 AUDIO
TITLE "Die Bajadere_Deine dunklen Augen"
PERFORMER "Max Willenz & Peggy Permond mit orchester"
INDEX 01 47:14:24
TRACK 19 AUDIO
TITLE "Die Fasschingsfee_Loreley"
PERFORMER "Eugen Rex & Molly Wessely mit Orchester, Seidler-winkler"
INDEX 01 51:02:31
TRACK 20 AUDIO
TITLE "Die Fasschingsfee_Was Männer lieben (Der Frauen Reize)"
PERFORMER "Fritzi Massary mit Orchester, Seidler-winkler"
INDEX 01 53:44:66
TRACK 21 AUDIO
TITLE "Die Csárdásfürstin_Jaj mamám"
PERFORMER "Pepi Ludl & Hermann Vallentin mit OrchesterSeidler-winkler"
INDEX 01 56:39:01
TRACK 22 AUDIO
TITLE "Die Csárdásfürstin_Ja, so ein Teufelsweib"
PERFORMER "Fritzi Massary mit Orchester, Seidler-winkler"
INDEX 01 59:34:06
TRACK 23 AUDIO
TITLE "Die Csárdásfürstin_Mädel gibt es wunderfeine"
PERFORMER "Albert Kutzner mit Orchester"
INDEX 01 62:22:41
TRACK 24 AUDIO
TITLE "Die Csárdásfürstin_Die Mädis vom Chantant"
PERFORMER "Johannes Müller & Katharina Garden mit Orchester"
INDEX 01 65:20:44
TRACK 25 AUDIO
TITLE "Der kleine König_Kamm, Lilli, setz' dich"
PERFORMER "Louise Kartousch mit Orchester"
INDEX 01 68:29:62
TRACK 26 AUDIO
TITLE "Der Zigeunerprimas_kornrn mit mir und Tanz' mit mir ins Himmelreich"
PERFORMER "Gerda Walde & [osef Victora mit Orchester"
INDEX 01 71:33:31
TRACK 27 AUDIO
TITLE "Ein Herbstmanöver_Das ist mein Freund, der Löbl"
PERFORMER "Max Pallenberg mit Orchester, Kálmán"
INDEX 01 74:23:41



Показать сообщения:    

Текущее время: 03-Дек 05:23

Часовой пояс: UTC + 3


Вы не можете начинать темы
Вы не можете отвечать на сообщения
Вы не можете редактировать свои сообщения
Вы не можете удалять свои сообщения
Вы не можете голосовать в опросах
Вы не можете прикреплять файлы к сообщениям
Вы не можете скачивать файлы