[TR24][SM][OF] (Рахманинов) Rachmaninoff - Symphonic Dances · Vocalise - Donald Johanos & Dallas Symphony Orchestra - 1967 (Classical)


Статистика раздачи [Обновить пиров]
Размер:  858 MB   |    Зарегистрирован:  8 месяцев 19 дней   |    Скачан:  0 раз

Полного источника не было: Никогда

 
   
 
 
 

[Цитировать]

·
·
·

Сергей Рахманинов
(1873–1943)
Жанр: Orchestral
Носитель: Official Digital Download
Год переиздания диска: 1998
Номер по каталогу издания: TV 34145S © turnabout / Vox Productions Inc.
Номер по каталогу переиздания: DAD 1004 © Classic Records Inc.
Продолжительность: 41:25
Наличие сканов в содержимом раздачи: artwork
Контейнер: FLAC (*.flac)
Разрядность: 24/96
Количество каналов: 2.0
Формат: tracks
Источник: HDtracks
Pелизер: WEB (thanks to the original customer)
Donald Johanos
Dallas Symphony Orchestra

Треклист

Symphonic Dances for Orchestra Op. 4501 I - Non allegro 11:21
02 II - Andate con moto: Tempo di valse 09:03
03 III - Lento assai; Allegro vivace 13:30
04 Vocalise for Orchestra Op. 34/14 7:31

Dynamic Range Meter

foobar2000 1.2.6 / Dynamic Range Meter 1.1.1
log date: 2015-09-22 23:00:33
--------------------------------------------------------------------------------
Analyzed: Dallas Symphony Orchestra; Donald Johanos / Rachmaninoff: Symphonic Dances; Vocalise
--------------------------------------------------------------------------------
DR Peak RMS Duration Track
--------------------------------------------------------------------------------
DR16 0.00 dB -22.42 dB 11:17 01-Rachmaninoff, Symphonic Dances for Orchestra, Op. 45: I. Non allegro
DR16 0.00 dB -23.66 dB 8:59 02-Rachmaninoff, Symphonic Dances for Orchestra, Op. 45: II. Andate con moto: Tempo di valse
DR15 0.00 dB -20.22 dB 13:13 03-Rachmaninoff, Symphonic Dances for Orchestra, Op. 45: III. Lento assai; Allegro vivace
DR13 -0.63 dB -27.42 dB 7:29 04-'Vocalise' for Orchestra, Op. 34, No. 14
--------------------------------------------------------------------------------
Number of tracks: 4
Official DR value: DR15
Samplerate: 96000 Hz
Channels: 2
Bits per sample: 24
Bitrate: 2889 kbps
Codec: FLAC
================================================================================
[teatrix.ru].t22307.torrent 
Торрент: Зарегистрирован [ 2016-03-20 12:37 ] · 53F95FF0E09566A213B595F048B3A6D3D2221BC3

Скачать .torrent

Скачать

18 KB

Статус: проверено
Скачан: 0 раз
Размер: 858 MB
terms.php



Быстрый ответ

Имя:

      
Для отправки сообщений необходимо включить JavaScript
Показать сообщения:    

Текущее время: 09-Дек 04:55

Часовой пояс: UTC + 3


Вы можете начинать темы
Вы можете отвечать на сообщения
Вы не можете редактировать свои сообщения
Вы не можете удалять свои сообщения
Вы не можете голосовать в опросах
Вы не можете прикреплять файлы к сообщениям
Вы можете скачивать файлы