Манхэттенский фестиваль короткометражного кино 2011 / The Manhattan Short Film Festival 2011 [2011 г., сборник, к/м, DVDRip] Sub Rus


Статистика раздачи [Обновить пиров]
Размер:  1.46 GB   |    Зарегистрирован:  8 месяцев 15 дней   |    Скачан:  0 раз

Полного источника не было: Никогда

 
   
 
 
 

[Цитировать]

Манхэттенский фестиваль короткометражного кино 2011 / The Manhattan Short Film Festival 2011
Страна: США/Канада/Швеция/Австралия/Египет/Шотландия/Перу/Венгрия/Швейцария
Жанр: короткий метр
Год выпуска: 2011
Продолжительность: 02:03:26
Перевод: Субтитры
Cубтитры: русские
Режиссер: Рубен Остланд,Кристофер Столлери,Джеральдин Зоссо,Колин Кеннеди,Джером Сэйбл,Нил ЛаБут,Карпати Дёрдь,Хулио Рамос,Джордж Завердас,Абу Бакр Шоки
В ролях: Джулия Стайлз,Л.Дж. Бенет,Колин Харрис и др
Описание: ПРОГРАММА МАНХЭТТЕНСКОГО ФЕСТИВАЛЯ КОРОТКОМЕТРАЖНОГО КИНО 2011:
№1. Случай перед банком / Incident By A Bank Рубен Остланд / Швеция / 9’30”
Золотой медведь Берлинского международного кинофестиваля за лучший короткометражный фильм в 2010 году Фильм снят при помощи всего одной камеры. Девяносто человек скрупулезно воссоздают провалившееся ограбление банка, которое произошло в Стокгольме в июне 2006 года.
№2. Dik Кристофер Столлери / Австралия / 10’00”
Шестилетний мальчик приносит домой задание из школы, которое заставляет его родителей интересоваться его сексуальной ориентацией.
№3. Mak Джеральдин Зоссо / Швейцария / 18’00”
Ильинка уже год живет в Швейцарии со своими молдавскими матерью и тетей. Ей всего 14 лет и она только что родила сына. Мать Ильинки узнает о месте, в которое можно отдать нежелательного ребенка…
№4. Я люблю Люси / I Love Luci Колин Кеннеди / Шотландия / 11’00”
Комедия о выпадающих зубах, неразделенной любви и возможности одной собаки повлиять на судьбу пары, которой не суждено быть вместе.
№5. Легенда бобровой плотины / The Legend of Beaver Dam Джером Сэйбл & Эли Батальон / Канада / 12’00”
Песня у костра пробуждает ужасного монстра, и зануда Дэнни Зигвитц должен спасти своих товарищей от ужасной резни. Скоро полетят головы!
№6. Секстинг / Sexting* Нил ЛаБут / США / 8’00”
Порвав отношения с женатым мужчиной, молодая женщина решает встретиться с его женой за чашечкой кофе. *Секстинг - пересылка личных фотографий интимного содержания посредством сотового телефона.
№7. Лес / The Forest Карпати Дёрдь Мор / Венгрия / 12’00”
Участник Берлинского международного кинофестиваля 2011 года В лесу произошло убийство. Молодой человек оказывается втянутым в череду странных происшествий…
№8. Работа врача / A Doctors Job Хулио Рамос / Перу / 10’30”
Доктор Рамон Моран подрабатывает таксистом, чтобы содержать свою психически нездоровую мать. Во время вождения такси он попадает в странную историю. Это возможность проверить его трудовую этику и гордость.
№9. Давид и Голиаф / David and Goliath Джордж Завердас / США / 12’00”
Правдивая история о человеке, собаке и Холокосте.
№10. Пятница мучеников/ Martyr Friday Абу Бакр Шоки / Египет / 10’00”
Взгляд изнутри на события, произошедшие в Каире в 2011 году. Продолжительность программы: 120 минут
Сэмпл: http://multi-up.com/1067706
Качество видео: DVDRip
Формат видео: AVI
Видео: XVID,720x408,16:9,25.000 fps,1 496 Kbps
Аудио: AC-3,48.0 KHz,192 Kbps,2 channels
Формат субтитров: hardsub (неотключаемые)

MediaInfo

Format : AVI
Format/Info : Audio Video Interleave
File size : 1.46 GiB
Duration : 2h 3mn
Overall bit rate : 1 698 Kbps
Writing application : VirtualDubMod 1.5.10.3 | www.virtualdub-fr.org || (build 2550/release)
Writing library : Boilsoft AVI tool build 30012/release
Video
ID : 0
Format : MPEG-4 Visual
Format profile : Advanced Simple@L5
Format settings, BVOP : 2
Format settings, QPel : No
Format settings, GMC : No warppoints
Format settings, Matrix : Default (H.263)
Codec ID : XVID
Codec ID/Hint : XviD
Duration : 2h 3mn
Bit rate : 1 496 Kbps
Width : 720 pixels
Height : 408 pixels
Display aspect ratio : 16:9
Frame rate : 25.000 fps
Color space : YUV
Chroma subsampling : 4:2:0
Bit depth : 8 bits
Scan type : Progressive
Compression mode : Lossy
Bits/(Pixel*Frame) : 0.204
Stream size : 1.29 GiB (88%)
Writing library : XviD 1.2.1 (UTC 2008-12-04)
Audio
ID : 1
Format : AC-3
Format/Info : Audio Coding 3
Mode extension : CM (complete main)
Format settings, Endianness : Big
Codec ID : 2000
Duration : 2h 3mn
Bit rate mode : Constant
Bit rate : 192 Kbps
Channel(s) : 2 channels
Channel positions : Front: L R
Sampling rate : 48.0 KHz
Bit depth : 16 bits
Compression mode : Lossy
Stream size : 169 MiB (11%)
Alignment : Split accross interleaves
Interleave, duration : 40 ms (1.00 video frame)
Interleave, preload duration : 500 ms

Скриншот c названием фильма

Скриншоты

смотрите также:
http://teatrix.ru/tracker.php?nm=%D0%9C%D0%B0%D0%BD...0%B0%D0%BB%D1%8C
[teatrix.ru].t22309.torrent 
Торрент: Зарегистрирован [ 2016-03-20 12:37 ] · 0D8E498F7DB61ACB238396F3071298BCCB410AB7

Скачать .torrent

Скачать

15 KB

Статус: проверено
Скачан: 0 раз
Размер: 1.46 GB
terms.php



Быстрый ответ

Имя:

      
Для отправки сообщений необходимо включить JavaScript
Показать сообщения:    

Текущее время: 04-Дек 21:25

Часовой пояс: UTC + 3


Вы можете начинать темы
Вы можете отвечать на сообщения
Вы не можете редактировать свои сообщения
Вы не можете удалять свои сообщения
Вы не можете голосовать в опросах
Вы не можете прикреплять файлы к сообщениям
Вы можете скачивать файлы