(Opera, Piano, Vocal) Menotti • The Telephon or L'Amour a trois • Ricercare and Toccato • Canti della Lontananza (Ricci, Banks, Costanzo - Orchestra da Camera di Milano, Vaglieri) - 2006, APE (image+.cue) lossless


 

[Цитировать]

Gian Carlo Menotti • The Telephon or L'Amour a trois
Ricercare and Toccato - Canti della Lontananza
Жанр: Opera, Piano, Vocal
Страна-производитель диска: EU
Год издания диска: 2006
Издатель (лейбл): Nueva Era
Номер по каталогу: 224173
Дата записи: 2006
Аудиокодек: APE
Тип рипа: image+.cue
Битрейт аудио: lossless
Продолжительность: 48'57
Источник: собственный рип
Наличие сканов в содержимом раздачи: да
Треклист / Исполнители:
01. The Telephon or L'Amour à trois
Opera buffa in 1 Akt
Ben - Gian Luca Ricci, tenor
Lucy - Anne Victoria Banks, soprano
Orchestra da Camera di Milano
Paolo Vaglieri, conductor
Ricercare and Toccato for piano
02. Ricercare
03. Toccata
Silva Costanzo, piano
Canti della Lontananza
04. Nr. 1: Gli amanti impossibili
05. Nr. 2: Mattinata di neve
06. Nr. 3: Il settimo bicchiere di vino
07. Nr. 4: Lo spettro
08. Nr. 5: Dorme Pegaso
09. Nr. 6: La lettera
10. Nr. 7: Rassegnazione
Anne Victoria Banks, soprano
Silva Costanzo, piano

Лог создания рипа

Exact Audio Copy V1.0 beta 6 from 9. April 2015
EAC extraction logfile from 21. September 2015, 12:41
Menotti / The Telephone_Ricercare_Canti
Used drive : TSSTcorpCDDVDW SE-208AB Adapter: 1 ID: 2
Read mode : Secure
Utilize accurate stream : Yes
Defeat audio cache : Yes
Make use of C2 pointers : No
Read offset correction : 6
Overread into Lead-In and Lead-Out : No
Fill up missing offset samples with silence : Yes
Delete leading and trailing silent blocks : No
Null samples used in CRC calculations : Yes
Used interface : Native Win32 interface for Win NT & 2000
Used output format : Monkey's Audio Lossless Encoder
Selected bitrate : High Lossless Compression
Quality : High
Add ID3 tag : Yes
Command line compressor : C:\Program Files (x86)\Exact Audio Copy\MAC\MAC.exe
TOC of the extracted CD
Track | Start | Length | Start sector | End sector
---------------------------------------------------------
1 | 0:00.00 | 25:10.49 | 0 | 113298
2 | 25:10.49 | 4:41.08 | 113299 | 134381
3 | 29:51.57 | 4:02.17 | 134382 | 152548
4 | 33:53.74 | 2:10.50 | 152549 | 162348
5 | 36:04.49 | 2:30.00 | 162349 | 173598
6 | 38:34.49 | 0:51.70 | 173599 | 177493
7 | 39:26.44 | 2:26.18 | 177494 | 188461
8 | 41:52.62 | 1:05.62 | 188462 | 193398
9 | 42:58.49 | 2:58.25 | 193399 | 206773
10 | 45:56.74 | 3:01.00 | 206774 | 220348
Range status and errors
Selected range
Filename D:\EAC\Menotti - The Telephone_Ricercare_Canti.wav
Peak level 97.9 %
Extraction speed 1.8 X
Range quality 100.0 %
Test CRC C57D72B3
Copy CRC C57D72B3
Copy OK
No errors occurred
AccurateRip summary
Track 1 cannot be verified as accurate (confidence 1) [236161FA], AccurateRip returned [AF36E694] (AR v2)
Track 2 accurately ripped (confidence 1) [FF3DB235] (AR v1)
Track 3 accurately ripped (confidence 1) [CEDE1879] (AR v1)
Track 4 accurately ripped (confidence 1) [E123E139] (AR v1)
Track 5 accurately ripped (confidence 1) [08BDEE81] (AR v1)
Track 6 accurately ripped (confidence 1) [12DB7750] (AR v1)
Track 7 accurately ripped (confidence 1) [4A859A64] (AR v1)
Track 8 accurately ripped (confidence 1) [BB002335] (AR v1)
Track 9 accurately ripped (confidence 1) [9B3C89F9] (AR v1)
Track 10 accurately ripped (confidence 1) [EA064EDD] (AR v1)
9 track(s) accurately ripped
1 track(s) could not be verified as accurate
Some tracks could not be verified as accurate
End of status report
---- CUETools DB Plugin V2.1.6
[CTDB TOCID: Zz6Uvtj9eN1FhInkrG1XM_.WNOA-] found
Submit result: Zz6Uvtj9eN1FhInkrG1XM_.WNOA- has been confirmed
Track | CTDB Status
1 | (2/2) Accurately ripped
2 | (2/2) Accurately ripped
3 | (2/2) Accurately ripped
4 | (2/2) Accurately ripped
5 | (2/2) Accurately ripped
6 | (2/2) Accurately ripped
7 | (2/2) Accurately ripped
8 | (2/2) Accurately ripped
9 | (2/2) Accurately ripped
10 | (2/2) Accurately ripped
==== Log checksum EC08D3EC7878CC6A478524A94CF6F881A9051C12C57C872041648B1A7B78BAB2 ====

Содержание индексной карты (.CUE)

REM GENRE Vocal
REM DATE 2006
REM DISCID 880B790A
REM COMMENT "ExactAudioCopy v1.0b6"
PERFORMER "Menotti"
TITLE "The Telephone_Ricercare_Canti"
FILE "Menotti - The Telephone_Ricercare_Canti.ape" WAVE
TRACK 01 AUDIO
TITLE "The Telephone"
PERFORMER "Banks, Ricci_Orchestra da Camera Milano_Vaglieri"
ISRC DEU240624223
INDEX 01 00:00:00
TRACK 02 AUDIO
TITLE "Ricercare and Toccata for piano I. Ricercare"
PERFORMER "Silva Costanzo, piano"
ISRC DEU240624224
INDEX 01 25:10:49
TRACK 03 AUDIO
TITLE "II. Toccato"
PERFORMER "Silva Costanzo, piano"
ISRC DEU240624225
INDEX 01 29:51:57
TRACK 04 AUDIO
TITLE "Canti della lontananza I. Gli amantiimpossibili"
PERFORMER "Anne Victoria Banks, soprano_Silva Costanzo, piano"
ISRC DEU240624226
INDEX 01 33:53:74
TRACK 05 AUDIO
TITLE "II. Mattinata di neve"
PERFORMER "Anne Victoria Banks, soprano_Silva Costanzo, piano"
ISRC DEU240624227
INDEX 01 36:04:49
TRACK 06 AUDIO
TITLE "III. Il settimo bicchiere di vino"
PERFORMER "Anne Victoria Banks, soprano_Silva Costanzo, piano"
ISRC DEU240624228
INDEX 01 38:34:49
TRACK 07 AUDIO
TITLE "IV. Lo spettro"
PERFORMER "Anne Victoria Banks, soprano_Silva Costanzo, piano"
ISRC DEU240624229
INDEX 01 39:26:44
TRACK 08 AUDIO
TITLE "V. Dorme Pegaso"
PERFORMER "Anne Victoria Banks, soprano_Silva Costanzo, piano"
ISRC DEU240624230
INDEX 01 41:52:62
TRACK 09 AUDIO
TITLE "VI. La lettera"
PERFORMER "Anne Victoria Banks, soprano_Silva Costanzo, piano"
ISRC DEU240624231
INDEX 01 42:58:49
TRACK 10 AUDIO
TITLE "VII. Rassegnazione"
PERFORMER "Anne Victoria Banks, soprano_Silva Costanzo, piano"
ISRC DEU240624232
INDEX 01 45:56:74
Доп. информация:
The Telephone, or L'Amour à trois is an English-language comic opera in one act by Gian Carlo Menotti, both words and music.
It was written for production by the Ballet Society and was first presented on a double bill with Menotti's The Medium at the Heckscher Theater, New York City, February 18-20, 1947.
The Broadway production took place on May 1, 1947, at the Ethel Barrymore Theatre.
The Metropolitan Opera presented it once, on July 31, 1965.
Synopsis
Ben, bearing a gift, comes to visit Lucy at her apartment; he wants to propose to her before he leaves on a trip.
Despite his attempts to get her attention for sufficient time to ask his question, Lucy is occupied with interminable conversations on the telephone.
Between her calls, when Lucy leaves the room, Ben even takes the risk of trying to cut the telephone cord, though his attempt is unsuccessful.
Not wanting to miss his train, Ben leaves without asking Lucy for her hand in marriage.
But Ben makes one last attempt: He calls Lucy from a telephone booth outside on the street and makes his proposal.
She consents, and the two join in a romantic duet over the phone line, at the end of which Lucy makes sure that Ben remembers her phone number.



Показать сообщения:    

Текущее время: 11-Дек 05:23

Часовой пояс: UTC + 3


Вы не можете начинать темы
Вы не можете отвечать на сообщения
Вы не можете редактировать свои сообщения
Вы не можете удалять свои сообщения
Вы не можете голосовать в опросах
Вы не можете прикреплять файлы к сообщениям
Вы не можете скачивать файлы