(Sacred Morality Play) De' Cavalieri - Rappresentatione de Anima et de Corpo (Malaguti, Rosolen, Loomis - Società Cameristica di Lugano, Loehrer) - 2006, APE (image+.cue) lossless


Статистика раздачи [Обновить пиров]
Размер:  249 MB   |    Зарегистрирован:  8 месяцев 18 дней   |    Скачан:  0 раз

Полного источника не было: Никогда

 
   
 
 
 

[Цитировать]

Emilio de' Cavalieri - La rappresentatione di anima e di corpo
Жанр: Sacred Morality Play
Страна-производитель диска: EU
Год издания диска: 2006
Издатель (лейбл): Nuova Era
Номер по каталогу: 223288-203
Дата записи: 1968/1970
Аудиокодек: APE
Тип рипа: image+.cue
Битрейт аудио: lossless
Продолжительность: 58'45
Источник: собственный рип
Наличие сканов в содержимом раздачи: да
Треклист:
1. Introduzione. O signor santo e vero
2. Act 1. No. 1. Voi che all'aspetto
3. Act 1. No. 2. Il tempo fugge
4. Act 1. No. 3. Questa vita mortale
5. Act 1. No. 4. Ogni cor ama il bene
6. Act 1. No. 5. Anima mia che pensi?
7. Act 1. No. 6. Il ciel clemente
8. Act 1. No. 7. Zwischenaktmusik
9. Act 2. No. 8. Benedite il signor
10. Act 2. No. 9. La nostra vita in terra
11. Act 2. No. 10. O quanti errori
12. Act 2. No. 11. Chi gioia
13. Act 2. No. 12. Fortissimi guerrieri
14. Act 2. No. 13. Altri doman le fiere
15. Act 2. No. 14. Io son il mondo
16. Act 2. No. 15. Io son la cara vita
17. Act 2. No. 16. O miseri amatori
18. Act 2. No. 17. Dagli abissi terreni
19. Act 2. No. 18. Zwischenaktmusik
20. Act 3. No. 19. Salite pural cielo
21. Act 3. No. 20. Voi che siete laggiù
22. Act 3. No. 21. Anime ch'in ciel godete
23. Act 3. No. 22. O gran stupore
24. Act 3. No. 23. Alme la pena e il danno
25. Act 3. No. 24. Alme beate e belle lassù
26. Act 3. No. 25. Ognun faccia sempre bene
27. Act 3. No. 26. Ogni lingua ogni core
28. Act 3. No. 27. Come cervo assetato
29. Act 3. No. 28. Chiostri altissimi e stellati
Исполнители:
Emilio de' Cavalieri - La rappresentatione di anima e di corpo
Musical morality play in 3 Acts
Laerte Malaguti, baritone
Sante Rosolen, tenor
James Loomis, bass
Luciana Ticinelli, soprano
Società Cameristica di Lugano
Edwin Loehrer, conductor

Лог создания рипа

Exact Audio Copy V1.0 beta 6 from 9. April 2015
EAC extraction logfile from 16. September 2015, 0:47
Malaguti, Rosolen, Loomis - Società Cameristica di Lugano, Loehrer / De' Cavalieri - Rappresentatione de Anima et de Corpo, Loehrer
Used drive : TS8XDVDSTRANSCEND Adapter: 1 ID: 1
Read mode : Secure
Utilize accurate stream : Yes
Defeat audio cache : Yes
Make use of C2 pointers : No
Read offset correction : 6
Overread into Lead-In and Lead-Out : No
Fill up missing offset samples with silence : Yes
Delete leading and trailing silent blocks : No
Null samples used in CRC calculations : Yes
Used interface : Native Win32 interface for Win NT & 2000
Used output format : Monkey's Audio Lossless Encoder
Selected bitrate : High Lossless Compression
Quality : High
Add ID3 tag : Yes
Command line compressor : C:\Program Files (x86)\Exact Audio Copy\MAC\MAC.exe
TOC of the extracted CD
Track | Start | Length | Start sector | End sector
---------------------------------------------------------
1 | 0:00.00 | 1:46.39 | 0 | 7988
2 | 1:46.39 | 2:44.32 | 7989 | 20320
3 | 4:30.71 | 4:17.15 | 20321 | 39610
4 | 8:48.11 | 1:52.53 | 39611 | 48063
5 | 10:40.64 | 3:03.50 | 48064 | 61838
6 | 13:44.39 | 6:58.12 | 61839 | 93200
7 | 20:42.51 | 2:24.50 | 93201 | 104050
8 | 23:07.26 | 2:29.43 | 104051 | 115268
9 | 25:36.69 | 0:25.55 | 115269 | 117198
10 | 26:02.49 | 0:48.30 | 117199 | 120828
11 | 26:51.04 | 1:00.30 | 120829 | 125358
12 | 27:51.34 | 7:54.32 | 125359 | 160940
13 | 35:45.66 | 0:23.53 | 160941 | 162718
14 | 36:09.44 | 0:30.45 | 162719 | 165013
15 | 36:40.14 | 1:04.65 | 165014 | 169878
16 | 37:45.04 | 2:48.60 | 169879 | 182538
17 | 40:33.64 | 0:35.35 | 182539 | 185198
18 | 41:09.24 | 2:27.49 | 185199 | 196272
19 | 43:36.73 | 1:12.24 | 196273 | 201696
20 | 44:49.22 | 0:53.17 | 201697 | 205688
21 | 45:42.39 | 1:32.00 | 205689 | 212588
22 | 47:14.39 | 2:12.63 | 212589 | 222551
23 | 49:27.27 | 0:23.27 | 222552 | 224303
24 | 49:50.54 | 1:30.00 | 224304 | 231053
25 | 51:20.54 | 1:15.68 | 231054 | 236746
26 | 52:36.47 | 0:31.05 | 236747 | 239076
27 | 53:07.52 | 2:54.35 | 239077 | 252161
28 | 56:02.12 | 0:49.72 | 252162 | 255908
29 | 56:52.09 | 1:51.57 | 255909 | 264290
Range status and errors
Selected range
Filename D:\EAC\De' Cavalieri - Rappresentatione de Anima et de Corpo, Loehrer.wav
Peak level 95.3 %
Extraction speed 4.4 X
Range quality 99.9 %
Test CRC DA8A12F7
Copy CRC DA8A12F7
Copy OK
No errors occurred
AccurateRip summary
Track 1 accurately ripped (confidence 3) [0FA1BCCD] (AR v2)
Track 2 accurately ripped (confidence 4) [3E4D45CA] (AR v2)
Track 3 accurately ripped (confidence 4) [8FE06737] (AR v2)
Track 4 accurately ripped (confidence 4) [B9420125] (AR v2)
Track 5 accurately ripped (confidence 4) [927083F6] (AR v2)
Track 6 accurately ripped (confidence 4) [F9AE3388] (AR v2)
Track 7 accurately ripped (confidence 4) [0EB00AEC] (AR v2)
Track 8 accurately ripped (confidence 4) [B3FC4CAC] (AR v2)
Track 9 accurately ripped (confidence 4) [F2F78648] (AR v2)
Track 10 accurately ripped (confidence 4) [050234A2] (AR v2)
Track 11 accurately ripped (confidence 4) [420B63CE] (AR v2)
Track 12 accurately ripped (confidence 4) [02FDB4A7] (AR v2)
Track 13 accurately ripped (confidence 4) [2C7B3C03] (AR v2)
Track 14 accurately ripped (confidence 4) [1E145BCA] (AR v2)
Track 15 accurately ripped (confidence 4) [66E6EF56] (AR v2)
Track 16 accurately ripped (confidence 4) [1FF9C471] (AR v2)
Track 17 accurately ripped (confidence 4) [FC27217B] (AR v2)
Track 18 accurately ripped (confidence 4) [E173ACAD] (AR v2)
Track 19 accurately ripped (confidence 4) [9AA8E72B] (AR v2)
Track 20 accurately ripped (confidence 4) [686BCBA7] (AR v2)
Track 21 accurately ripped (confidence 4) [C288C703] (AR v2)
Track 22 accurately ripped (confidence 4) [0330A9ED] (AR v2)
Track 23 accurately ripped (confidence 4) [47BBACD5] (AR v2)
Track 24 accurately ripped (confidence 4) [CEFB5EA5] (AR v2)
Track 25 accurately ripped (confidence 4) [55BAD6CB] (AR v2)
Track 26 accurately ripped (confidence 4) [154E6983] (AR v2)
Track 27 accurately ripped (confidence 4) [74538322] (AR v2)
Track 28 accurately ripped (confidence 4) [FE760EAC] (AR v2)
Track 29 accurately ripped (confidence 4) [FB6D0EF4] (AR v2)
All tracks accurately ripped
End of status report
---- CUETools DB Plugin V2.1.6
[CTDB TOCID: oiAjhJkYCgAO.aNtHHaGQZxSJwA-] found
Submit result: unrecognized or virtual drive
Track | CTDB Status
1 | (8/8) Accurately ripped
2 | (8/8) Accurately ripped
3 | (8/8) Accurately ripped
4 | (8/8) Accurately ripped
5 | (8/8) Accurately ripped
6 | (8/8) Accurately ripped
7 | (8/8) Accurately ripped
8 | (8/8) Accurately ripped
9 | (8/8) Accurately ripped
10 | (8/8) Accurately ripped
11 | (8/8) Accurately ripped
12 | (8/8) Accurately ripped
13 | (8/8) Accurately ripped
14 | (8/8) Accurately ripped
15 | (8/8) Accurately ripped
16 | (8/8) Accurately ripped
17 | (8/8) Accurately ripped
18 | (8/8) Accurately ripped
19 | (8/8) Accurately ripped
20 | (8/8) Accurately ripped
21 | (8/8) Accurately ripped
22 | (8/8) Accurately ripped
23 | (8/8) Accurately ripped
24 | (8/8) Accurately ripped
25 | (8/8) Accurately ripped
26 | (8/8) Accurately ripped
27 | (8/8) Accurately ripped
28 | (8/8) Accurately ripped
29 | (8/8) Accurately ripped
==== Log checksum 97DA3FCDB984C76AEA3A6F77464647C51BB3D2AE19582589BEAF0240FF8A8092 ====

Содержание индексной карты (.CUE)

REM GENRE Opera
REM DATE 1970
REM DISCID AA0DC31D
REM COMMENT "ExactAudioCopy v1.0b6"
PERFORMER "Malaguti, Rosolen, Loomis - Società Cameristica di Lugano, Loehrer"
TITLE "De' Cavalieri - Rappresentatione de Anima et de Corpo, Loehrer"
FILE "De' Cavalieri - Rappresentatione de Anima et de Corpo, Loehrer.ape" WAVE
TRACK 01 AUDIO
TITLE "Introduzione - O Signor Santo E Vero"
PERFORMER "Malaguti, Rosolen, Loomis - Società Cameristica di Lugano, Loehrer"
ISRC DEU240528640
INDEX 01 00:00:00
TRACK 02 AUDIO
TITLE "Act I - No.1 - Voi Che All'aspetto"
PERFORMER "Malaguti, Rosolen, Loomis - Società Cameristica di Lugano, Loehrer"
ISRC DEU240528641
INDEX 01 01:46:39
TRACK 03 AUDIO
TITLE "Act I - No.2 - Il Tempo Fugge"
PERFORMER "Malaguti, Rosolen, Loomis - Società Cameristica di Lugano, Loehrer"
ISRC DEU240528642
INDEX 01 04:30:71
TRACK 04 AUDIO
TITLE "Act I - No.3 - Questa Vita Mortale"
PERFORMER "Malaguti, Rosolen, Loomis - Società Cameristica di Lugano, Loehrer"
ISRC DEU240528643
INDEX 01 08:48:11
TRACK 05 AUDIO
TITLE "Act I - No.4 - Ogni Cor Ama Il Bene"
PERFORMER "Malaguti, Rosolen, Loomis - Società Cameristica di Lugano, Loehrer"
ISRC DEU240528644
INDEX 01 10:40:64
TRACK 06 AUDIO
TITLE "Act I - No.5 - Anima Mia Che Pensi?"
PERFORMER "Malaguti, Rosolen, Loomis - Società Cameristica di Lugano, Loehrer"
ISRC DEU240528645
INDEX 01 13:44:39
TRACK 07 AUDIO
TITLE "Act I - No.6 - Il Ciel Clemente"
PERFORMER "Malaguti, Rosolen, Loomis - Società Cameristica di Lugano, Loehrer"
ISRC DEU240528646
INDEX 01 20:42:51
TRACK 08 AUDIO
TITLE "Act I - No.7 - Zwischenaktmusik"
PERFORMER "Malaguti, Rosolen, Loomis - Società Cameristica di Lugano, Loehrer"
ISRC DEU240528647
INDEX 01 23:07:26
TRACK 09 AUDIO
TITLE "Act II - No.8 - Benedite Il Signor"
PERFORMER "Malaguti, Rosolen, Loomis - Società Cameristica di Lugano, Loehrer"
ISRC DEU240528648
INDEX 01 25:36:69
TRACK 10 AUDIO
TITLE "Act II - No.9 - La Nostra Vita In Terra"
PERFORMER "Malaguti, Rosolen, Loomis - Società Cameristica di Lugano, Loehrer"
ISRC DEU240528649
INDEX 01 26:02:49
TRACK 11 AUDIO
TITLE "Act II - No.10 - O Quanti Errori"
PERFORMER "Malaguti, Rosolen, Loomis - Società Cameristica di Lugano, Loehrer"
ISRC DEU240528650
INDEX 01 26:51:04
TRACK 12 AUDIO
TITLE "Act II - No.11 - Chi Gioia"
PERFORMER "Malaguti, Rosolen, Loomis - Società Cameristica di Lugano, Loehrer"
ISRC DEU240528651
INDEX 01 27:51:34
TRACK 13 AUDIO
TITLE "Act II - No.12 - Fortissimi Guerrieri"
PERFORMER "Malaguti, Rosolen, Loomis - Società Cameristica di Lugano, Loehrer"
ISRC DEU240528652
INDEX 01 35:45:66
TRACK 14 AUDIO
TITLE "Act II - No.13 - Altri Doman Le Fiere"
PERFORMER "Malaguti, Rosolen, Loomis - Società Cameristica di Lugano, Loehrer"
ISRC DEU240528653
INDEX 01 36:09:44
TRACK 15 AUDIO
TITLE "Act II - No.14 - Io Son Il Mondo"
PERFORMER "Malaguti, Rosolen, Loomis - Società Cameristica di Lugano, Loehrer"
ISRC DEU240528654
INDEX 01 36:40:14
TRACK 16 AUDIO
TITLE "Act II - No.15 - Io Son La Cara Vita"
PERFORMER "Malaguti, Rosolen, Loomis - Società Cameristica di Lugano, Loehrer"
ISRC DEU240528655
INDEX 01 37:45:04
TRACK 17 AUDIO
TITLE "Act II - No.16 - O Miseri Amatori"
PERFORMER "Malaguti, Rosolen, Loomis - Società Cameristica di Lugano, Loehrer"
ISRC DEU240528656
INDEX 01 40:33:64
TRACK 18 AUDIO
TITLE "Act II - No.17 - Dagli Abissi Terreni"
PERFORMER "Malaguti, Rosolen, Loomis - Società Cameristica di Lugano, Loehrer"
ISRC DEU240528657
INDEX 01 41:09:24
TRACK 19 AUDIO
TITLE "Act II - No.18 - Zwischenaktmusik"
PERFORMER "Malaguti, Rosolen, Loomis - Società Cameristica di Lugano, Loehrer"
ISRC DEU240528658
INDEX 00 43:34:73
INDEX 01 43:36:73
TRACK 20 AUDIO
TITLE "Act III - No.19 - Salite Pural Cielo"
PERFORMER "Malaguti, Rosolen, Loomis - Società Cameristica di Lugano, Loehrer"
ISRC DEU240528659
INDEX 01 44:49:22
TRACK 21 AUDIO
TITLE "Act III - No.20 - Voi Che Siete Laggiu"
PERFORMER "Malaguti, Rosolen, Loomis - Società Cameristica di Lugano, Loehrer"
ISRC DEU240528660
INDEX 01 45:42:39
TRACK 22 AUDIO
TITLE "Act III - No.21 - Anime Ch'in Ciel Godete"
PERFORMER "Malaguti, Rosolen, Loomis - Società Cameristica di Lugano, Loehrer"
ISRC DEU240528661
INDEX 01 47:14:39
TRACK 23 AUDIO
TITLE "Act III - No.22 - O Gran Stupore"
PERFORMER "Malaguti, Rosolen, Loomis - Società Cameristica di Lugano, Loehrer"
ISRC DEU240528662
INDEX 01 49:27:27
TRACK 24 AUDIO
TITLE "Act III - No.23 - Alme La Pena E Il Danno"
PERFORMER "Malaguti, Rosolen, Loomis - Società Cameristica di Lugano, Loehrer"
ISRC DEU240528663
INDEX 01 49:50:54
TRACK 25 AUDIO
TITLE "Act III - No.24 - Alme Beate E Belle Lassu"
PERFORMER "Malaguti, Rosolen, Loomis - Società Cameristica di Lugano, Loehrer"
ISRC DEU240528664
INDEX 01 51:20:54
TRACK 26 AUDIO
TITLE "Act III - No.25 - Ognun Faccia Sempre Bene"
PERFORMER "Malaguti, Rosolen, Loomis - Società Cameristica di Lugano, Loehrer"
ISRC DEU240528665
INDEX 01 52:36:47
TRACK 27 AUDIO
TITLE "Act III - No.26 - Ogni Lingua Ogni Core"
PERFORMER "Malaguti, Rosolen, Loomis - Società Cameristica di Lugano, Loehrer"
ISRC DEU240528666
INDEX 01 53:07:52
TRACK 28 AUDIO
TITLE "Act III - No.27 - Come Cervo Assetato"
PERFORMER "Malaguti, Rosolen, Loomis - Società Cameristica di Lugano, Loehrer"
ISRC DEU240528667
INDEX 01 56:02:12
TRACK 29 AUDIO
TITLE "Act III - No.28 - Chiostri Altissimi E Stellati"
PERFORMER "Malaguti, Rosolen, Loomis - Società Cameristica di Lugano, Loehrer"
ISRC DEU240528668
INDEX 01 56:52:09
[teatrix.ru].t22313.torrent 
Торрент: Зарегистрирован [ 2016-03-20 12:37 ] · 7B8521C285039D002CAAA9949087A4DEB146FCDB

Скачать .torrent

Скачать

21 KB

Статус: проверено
Скачан: 0 раз
Размер: 249 MB
terms.php



Быстрый ответ

Имя:

      
Для отправки сообщений необходимо включить JavaScript
Показать сообщения:    

Текущее время: 08-Дек 09:03

Часовой пояс: UTC + 3


Вы можете начинать темы
Вы можете отвечать на сообщения
Вы не можете редактировать свои сообщения
Вы не можете удалять свои сообщения
Вы не можете голосовать в опросах
Вы не можете прикреплять файлы к сообщениям
Вы можете скачивать файлы