(Baroque Opera) Gazzaniga - Don Giovanni (Jacopucci, Giorgetti, Ticinelli, Minetto - Coro e Orchestra della Radiotelevisione dell Svizzera Italiana, Handt) - 1999, APE (image+.cue) lossless


 

[Цитировать]

Giuseppe Gazzaniga - Don Giovanni Tenorio, o sia Il convitato di pietra
Жанр: Baroque Opera
Страна-производитель диска: Italy
Год издания диска: 1999
Издатель (лейбл): Nuova Era
Номер по каталогу: 1222
Дата записи: 1963
Аудиокодек: APE
Тип рипа: image+.cue
Битрейт аудио: lossless
Продолжительность: 45'23+43'31
Источник: собственный рип
Наличие сканов в содержимом раздачи: да
Треклист:

CD1

1. Act 1. Sinfonia
2. Act 1. Scene 1. La gran bestia è il mio padrone
3. Act 1. Scene 1. Recitativo. Zh, zh...
4. Act 1. Scene 3. Recitativo. Ecco col sangue istesso
5. Act 1. Scene 3. Aria. Vicin sperai l'stante
6. Act 1. Scene 5. Recitativo. Posto che non mi parli
7. Act 1. Scene 5. Cavatina. Povere femmine
8. Act 1. Scene 5. Recitativo. Oh cielo!
9. Act 1. Scene 5. Duetto. Dell'Italia ed Alemagna
10. Act 1. Scene 9. Recitativo. Più di ciò non si parli
11. Act 1. Scene 9. Aria. Per voi nemmeno in faccia
12. Act 1. Scene 9. Cavatina. Bella cosa per una ragazza
13. Act 1. Scene 9. Recitativo. Oh, Oh, Poffar Diana
14. Act 1. Scene 9. Aria. A me schiaffi sul mio viso!
15. Act 1. Scene 13. Recitativo. Con vostra permissione
16. Act 1. Scene 13. Aria. Se pur degna voi mi fate

CD2

1. Act 2. Scene 16. Recitativo. Signor mio, una parola
2. Act 2. Scene 16. Duetto. Per quanto ben ti guardo
3. Act 2. Scene 20. Recitativo. Io non sò, detto sia con vostra permissione
4. Act 2. Scene 20. Duetto. Signor Commendatore...
5. Act 2. Scene 21. Recitativo. È la gran vita quella di servire
6. Act 2. Scene 21. Aria. Sposa più a voi non sono
7. Act 2. Scene 23. Recitativo. Presto, presto, alla cena
8. Act 2. Concerto di stromenti
9. Act 2. Scene. Ehi Lanterna, da bere
10. Act 2. Finale. Far devi un brindisi alla città
11. Act 2. Finale. Aria. Alle donne Venesiane
12. Act 2. Finale. Signor, signor sentite
13. Act 2. Final Scene. Qual strepito è questo
Исполнители:
Giuseppe Gazzaniga - Don Giovanni Tenorio, o sia Il convitato di pietra
Dramma giocoso in 2 Acts
Libretto: Giovanni Bertati
Donn Elvira - Maria Luisa Giorgetti, soprano
Donna Anna - Luciana Ticinelli, soprano
Don Giovanni - Fernando Jacopucci, tenor
Donna Ximena - Maria Minetto, mezzo-soprano
Maturina - Maria-Grazia Ferraccini, soprano
Coro della Radiotelevisione dell Svizzera Italiana
Orchestra della Radiotelevisione dell Svizzera Italiana
Conductor: Herbert Handt

Лог создания рипа

CD1

Exact Audio Copy V1.0 beta 6 from 9. April 2015
EAC extraction logfile from 17. September 2015, 14:58
Giorgetti, Ticinelli, Jacopucci - Coro e Orch. della RT Sizzera Italiana, Handt / Gazzaniga - Don Giovanni, Handt CD1
Used drive : TSSTcorpCDDVDW SE-208AB Adapter: 1 ID: 2
Read mode : Secure
Utilize accurate stream : Yes
Defeat audio cache : Yes
Make use of C2 pointers : No
Read offset correction : 6
Overread into Lead-In and Lead-Out : No
Fill up missing offset samples with silence : Yes
Delete leading and trailing silent blocks : No
Null samples used in CRC calculations : Yes
Used interface : Native Win32 interface for Win NT & 2000
Used output format : Monkey's Audio Lossless Encoder
Selected bitrate : High Lossless Compression
Quality : High
Add ID3 tag : Yes
Command line compressor : C:\Program Files (x86)\Exact Audio Copy\MAC\MAC.exe
TOC of the extracted CD
Track | Start | Length | Start sector | End sector
---------------------------------------------------------
1 | 0:00.00 | 4:36.72 | 0 | 20771
2 | 4:36.72 | 6:07.68 | 20772 | 48364
3 | 10:44.65 | 0:31.10 | 48365 | 50699
4 | 11:16.00 | 2:17.30 | 50700 | 61004
5 | 13:33.30 | 3:09.10 | 61005 | 75189
6 | 16:42.40 | 1:27.50 | 75190 | 81764
7 | 18:10.15 | 3:21.65 | 81765 | 96904
8 | 21:32.05 | 1:55.37 | 96905 | 105566
9 | 23:27.42 | 3:22.03 | 105567 | 120719
10 | 26:49.45 | 1:12.00 | 120720 | 126119
11 | 28:01.45 | 3:42.45 | 126120 | 142814
12 | 31:44.15 | 2:40.07 | 142815 | 154821
13 | 34:24.22 | 1:44.30 | 154822 | 162651
14 | 36:08.52 | 3:10.15 | 162652 | 176916
15 | 39:18.67 | 1:55.10 | 176917 | 185551
16 | 41:14.02 | 4:09.16 | 185552 | 204242
Range status and errors
Selected range
Filename D:\EAC\Gazzaniga - Don Giovanni, Handt CD1.wav
Peak level 100.0 %
Extraction speed 4.4 X
Range quality 100.0 %
Test CRC BEC2735F
Copy CRC BEC2735F
Copy OK
No errors occurred
AccurateRip summary
Track 1 accurately ripped (confidence 2) [5788BF59] (AR v2)
Track 2 accurately ripped (confidence 2) [56092CDB] (AR v2)
Track 3 accurately ripped (confidence 2) [C7A64EC8] (AR v2)
Track 4 accurately ripped (confidence 2) [8BBD10CF] (AR v2)
Track 5 accurately ripped (confidence 2) [3E688681] (AR v2)
Track 6 accurately ripped (confidence 2) [4EAB0B84] (AR v2)
Track 7 accurately ripped (confidence 2) [92CA7C3F] (AR v2)
Track 8 accurately ripped (confidence 2) [5A88026B] (AR v2)
Track 9 accurately ripped (confidence 2) [27B86722] (AR v2)
Track 10 accurately ripped (confidence 2) [BDF9C746] (AR v2)
Track 11 accurately ripped (confidence 2) [50D2DAFF] (AR v2)
Track 12 accurately ripped (confidence 2) [D5C6C46A] (AR v2)
Track 13 accurately ripped (confidence 2) [E42FD3D7] (AR v2)
Track 14 accurately ripped (confidence 2) [E5A651A2] (AR v2)
Track 15 accurately ripped (confidence 2) [18FC8635] (AR v2)
Track 16 accurately ripped (confidence 2) [E95CBB60] (AR v2)
All tracks accurately ripped
End of status report
---- CUETools DB Plugin V2.1.6
[CTDB TOCID: yjJ4wD0Prxcg74uZ6iBpWSWjmBc-] found
Submit result: yjJ4wD0Prxcg74uZ6iBpWSWjmBc- has been confirmed
Track | CTDB Status
1 | (1/1) Accurately ripped
2 | (1/1) Accurately ripped
3 | (1/1) Accurately ripped
4 | (1/1) Accurately ripped
5 | (1/1) Accurately ripped
6 | (1/1) Accurately ripped
7 | (1/1) Accurately ripped
8 | (1/1) Accurately ripped
9 | (1/1) Accurately ripped
10 | (1/1) Accurately ripped
11 | (1/1) Accurately ripped
12 | (1/1) Accurately ripped
13 | (1/1) Accurately ripped
14 | (1/1) Accurately ripped
15 | (1/1) Accurately ripped
16 | (1/1) Accurately ripped
==== Log checksum 0014391864B7378BEC8556DFB1D285E7AA114C003EA8F0A50FF313409A178071 ====

CD2

Exact Audio Copy V1.0 beta 6 from 9. April 2015
EAC extraction logfile from 17. September 2015, 14:58
Giorgetti, Ticinelli, Jacopucci - Coro e Orch. della RT Sizzera Italiana, Handt / Gazzaniga - Don Giovanni, Handt CD2
Used drive : TS8XDVDSTRANSCEND Adapter: 1 ID: 1
Read mode : Secure
Utilize accurate stream : Yes
Defeat audio cache : Yes
Make use of C2 pointers : No
Read offset correction : 6
Overread into Lead-In and Lead-Out : No
Fill up missing offset samples with silence : Yes
Delete leading and trailing silent blocks : No
Null samples used in CRC calculations : Yes
Used interface : Native Win32 interface for Win NT & 2000
Used output format : Monkey's Audio Lossless Encoder
Selected bitrate : High Lossless Compression
Quality : High
Add ID3 tag : Yes
Command line compressor : C:\Program Files (x86)\Exact Audio Copy\MAC\MAC.exe
TOC of the extracted CD
Track | Start | Length | Start sector | End sector
---------------------------------------------------------
1 | 0:00.00 | 1:35.60 | 0 | 7184
2 | 1:35.60 | 4:48.60 | 7185 | 28844
3 | 6:24.45 | 1:37.20 | 28845 | 36139
4 | 8:01.65 | 4:07.42 | 36140 | 54706
5 | 12:09.32 | 2:31.28 | 54707 | 66059
6 | 14:40.60 | 3:47.20 | 66060 | 83104
7 | 18:28.05 | 1:17.00 | 83105 | 88879
8 | 19:45.05 | 1:24.55 | 88880 | 95234
9 | 21:09.60 | 0:42.12 | 95235 | 98396
10 | 21:51.72 | 4:33.40 | 98397 | 118911
11 | 26:25.37 | 1:39.38 | 118912 | 126374
12 | 28:05.00 | 8:57.27 | 126375 | 166676
13 | 37:02.27 | 6:28.06 | 166677 | 195782
Range status and errors
Selected range
Filename D:\EAC\Gazzaniga - Don Giovanni, Handt CD2.wav
Peak level 93.9 %
Extraction speed 4.4 X
Range quality 100.0 %
Test CRC 1053D321
Copy CRC 1053D321
Copy OK
No errors occurred
AccurateRip summary
Track 1 accurately ripped (confidence 1) [1BA590F4] (AR v2)
Track 2 accurately ripped (confidence 1) [587193EF] (AR v2)
Track 3 accurately ripped (confidence 1) [CE004F74] (AR v2)
Track 4 accurately ripped (confidence 1) [862B236B] (AR v2)
Track 5 accurately ripped (confidence 1) [564D6620] (AR v2)
Track 6 accurately ripped (confidence 1) [D41ADC77] (AR v2)
Track 7 accurately ripped (confidence 1) [AAB49B71] (AR v2)
Track 8 accurately ripped (confidence 1) [439A6448] (AR v2)
Track 9 accurately ripped (confidence 1) [5B553FD8] (AR v2)
Track 10 accurately ripped (confidence 1) [EF310CFC] (AR v2)
Track 11 accurately ripped (confidence 1) [603C1D94] (AR v2)
Track 12 accurately ripped (confidence 1) [EED4A3A5] (AR v2)
Track 13 accurately ripped (confidence 1) [B82E9402] (AR v2)
All tracks accurately ripped
End of status report
---- CUETools DB Plugin V2.1.6
[CTDB TOCID: hkjLZwZr2d.3iNfjLvbXjhl6JXY-] found
Submit result: unrecognized or virtual drive
Track | CTDB Status
1 | (1/1) Accurately ripped
2 | (1/1) Accurately ripped
3 | (1/1) Accurately ripped
4 | (1/1) Accurately ripped
5 | (1/1) Accurately ripped
6 | (1/1) Accurately ripped
7 | (1/1) Accurately ripped
8 | (1/1) Accurately ripped
9 | (1/1) Accurately ripped
10 | (1/1) Accurately ripped
11 | (1/1) Accurately ripped
12 | (1/1) Accurately ripped
13 | (1/1) Accurately ripped
==== Log checksum 96BEBD7016F9B7920DC9463CCF2A1F11FD980F24A2DB6D07C0C11CF364C9F47F ====

Содержание индексной карты (.CUE)

CD1

REM GENRE Opera
REM DATE 1999
REM DISCID D60AA310
REM COMMENT "ExactAudioCopy v1.0b6"
PERFORMER "Giorgetti, Ticinelli, Jacopucci - Coro e Orch. della RT Sizzera Italiana, Handt"
TITLE "Gazzaniga - Don Giovanni, Handt CD1"
FILE "Gazzaniga - Don Giovanni, Handt CD1.ape" WAVE
TRACK 01 AUDIO
TITLE "Sinfonia"
PERFORMER "Giorgetti, Ticinelli, Jacopucci - Coro e Orch. della RT Sizzera Italiana, Handt"
INDEX 01 00:00:00
TRACK 02 AUDIO
TITLE "Scena I 'La gran bestia è il mio padrone'"
PERFORMER "Giorgetti, Ticinelli, Jacopucci - Coro e Orch. della RT Sizzera Italiana, Handt"
INDEX 01 04:36:72
TRACK 03 AUDIO
TITLE "Recitativo 'Zh, zh...'"
PERFORMER "Giorgetti, Ticinelli, Jacopucci - Coro e Orch. della RT Sizzera Italiana, Handt"
INDEX 01 10:44:65
TRACK 04 AUDIO
TITLE "Scena III (Recitativo) 'Ecco col sangue istesso'"
PERFORMER "Giorgetti, Ticinelli, Jacopucci - Coro e Orch. della RT Sizzera Italiana, Handt"
INDEX 01 11:16:00
TRACK 05 AUDIO
TITLE "Aria Duca ottavio 'Ecco col sangue istesso'"
PERFORMER "Giorgetti, Ticinelli, Jacopucci - Coro e Orch. della RT Sizzera Italiana, Handt"
INDEX 01 13:33:30
TRACK 06 AUDIO
TITLE "Scena V (Recitativo 'Posto che non mi parli'"
PERFORMER "Giorgetti, Ticinelli, Jacopucci - Coro e Orch. della RT Sizzera Italiana, Handt"
INDEX 01 16:42:40
TRACK 07 AUDIO
TITLE "Cavatina Donna Elvira 'Povere femmine'"
PERFORMER "Giorgetti, Ticinelli, Jacopucci - Coro e Orch. della RT Sizzera Italiana, Handt"
INDEX 01 18:10:15
TRACK 08 AUDIO
TITLE "Recitativo 'Oh cielo!'"
PERFORMER "Giorgetti, Ticinelli, Jacopucci - Coro e Orch. della RT Sizzera Italiana, Handt"
INDEX 01 21:32:05
TRACK 09 AUDIO
TITLE "Duetto Pasquariello-Donna Elvira 'Dell'Italia ed Alemagna'"
PERFORMER "Giorgetti, Ticinelli, Jacopucci - Coro e Orch. della RT Sizzera Italiana, Handt"
INDEX 01 23:27:42
TRACK 10 AUDIO
TITLE "Scena IX (Rezitativo) 'Più di siò non si parli'"
PERFORMER "Giorgetti, Ticinelli, Jacopucci - Coro e Orch. della RT Sizzera Italiana, Handt"
INDEX 01 26:49:45
TRACK 11 AUDIO
TITLE "Aria Don Giovanni 'Per voi nemmeno in ffaccia'"
PERFORMER "Giorgetti, Ticinelli, Jacopucci - Coro e Orch. della RT Sizzera Italiana, Handt"
INDEX 01 28:01:45
TRACK 12 AUDIO
TITLE "Cavatina Maturina e Pasquariello con coro 'Bella cosa per una ragazza'"
PERFORMER "Giorgetti, Ticinelli, Jacopucci - Coro e Orch. della RT Sizzera Italiana, Handt"
INDEX 01 31:44:15
TRACK 13 AUDIO
TITLE "Recitativo 'Oh, oh, Poffar Diana'"
PERFORMER "Giorgetti, Ticinelli, Jacopucci - Coro e Orch. della RT Sizzera Italiana, Handt"
INDEX 01 34:24:22
TRACK 14 AUDIO
TITLE "Aria Biagio 'A me schiaffi sul mio viso!'"
PERFORMER "Giorgetti, Ticinelli, Jacopucci - Coro e Orch. della RT Sizzera Italiana, Handt"
INDEX 01 36:08:52
TRACK 15 AUDIO
TITLE "Scena XIII (Recitativo) 'con vostra permissione'"
PERFORMER "Giorgetti, Ticinelli, Jacopucci - Coro e Orch. della RT Sizzera Italiana, Handt"
INDEX 01 39:18:67
TRACK 16 AUDIO
TITLE "Aria Maturina 'Se pur degna voi mi fate'"
PERFORMER "Giorgetti, Ticinelli, Jacopucci - Coro e Orch. della RT Sizzera Italiana, Handt"
INDEX 01 41:14:02

CD2

REM GENRE Opera
REM DATE 1999
REM DISCID AB0A320D
REM COMMENT "ExactAudioCopy v1.0b6"
PERFORMER "Giorgetti, Ticinelli, Jacopucci - Coro e Orch. della RT Sizzera Italiana, Handt"
TITLE "Gazzaniga - Don Giovanni, Handt CD2"
FILE "Gazzaniga - Don Giovanni, Handt CD2.ape" WAVE
TRACK 01 AUDIO
TITLE "ATTO SECONDO - Signor, mio una parola"
PERFORMER "Giorgetti, Ticinelli, Jacopucci - Coro e Orch. della RT Sizzera Italiana, Handt"
INDEX 01 00:00:00
TRACK 02 AUDIO
TITLE "Per quanto ben ti guardo"
PERFORMER "Giorgetti, Ticinelli, Jacopucci - Coro e Orch. della RT Sizzera Italiana, Handt"
INDEX 01 01:35:60
TRACK 03 AUDIO
TITLE "Io no sò, detto sia con vostra permissione"
PERFORMER "Giorgetti, Ticinelli, Jacopucci - Coro e Orch. della RT Sizzera Italiana, Handt"
INDEX 01 06:24:45
TRACK 04 AUDIO
TITLE "Signor Commendatore"
PERFORMER "Giorgetti, Ticinelli, Jacopucci - Coro e Orch. della RT Sizzera Italiana, Handt"
INDEX 01 08:01:65
TRACK 05 AUDIO
TITLE "E' la gran vita quella di servire"
PERFORMER "Giorgetti, Ticinelli, Jacopucci - Coro e Orch. della RT Sizzera Italiana, Handt"
INDEX 01 12:09:32
TRACK 06 AUDIO
TITLE "Sposa più a voi non sono"
PERFORMER "Giorgetti, Ticinelli, Jacopucci - Coro e Orch. della RT Sizzera Italiana, Handt"
INDEX 01 14:40:60
TRACK 07 AUDIO
TITLE "Presto, presto, alla cena"
PERFORMER "Giorgetti, Ticinelli, Jacopucci - Coro e Orch. della RT Sizzera Italiana, Handt"
INDEX 01 18:28:05
TRACK 08 AUDIO
TITLE "Concerto di stromenti"
PERFORMER "Giorgetti, Ticinelli, Jacopucci - Coro e Orch. della RT Sizzera Italiana, Handt"
INDEX 01 19:45:05
TRACK 09 AUDIO
TITLE "Ehi Lanterna, da bere"
PERFORMER "Giorgetti, Ticinelli, Jacopucci - Coro e Orch. della RT Sizzera Italiana, Handt"
INDEX 01 21:09:60
TRACK 10 AUDIO
TITLE "Far devi un brindisi alla città"
PERFORMER "Giorgetti, Ticinelli, Jacopucci - Coro e Orch. della RT Sizzera Italiana, Handt"
INDEX 01 21:51:72
TRACK 11 AUDIO
TITLE "Alle donne Veneziane"
PERFORMER "Giorgetti, Ticinelli, Jacopucci - Coro e Orch. della RT Sizzera Italiana, Handt"
INDEX 01 26:25:37
TRACK 12 AUDIO
TITLE "Signor, signor sentite"
PERFORMER "Giorgetti, Ticinelli, Jacopucci - Coro e Orch. della RT Sizzera Italiana, Handt"
INDEX 01 28:05:00
TRACK 13 AUDIO
TITLE "Quale strepito è questo"
PERFORMER "Giorgetti, Ticinelli, Jacopucci - Coro e Orch. della RT Sizzera Italiana, Handt"
INDEX 01 37:02:27
Доп. информация:
Don Giovanni Tenorio, o sia Il convitato di pietra, Don Giovanni Tenorio, or The Stone Guest is the most famous opera by the Italian composer Giuseppe Gazzaniga.
It belongs to the genre of dramma giocoso and is in one act.
Don Giovanni Tenorio was first performed at the Teatro San Moisè, Venice, on February 5, 1787.
The libretto, by Giovanni Bertati, is based on the legend of Don Juan, leading to comparisons with Mozart's Don Giovanni, which had its premiere later in 1787. Mozart's librettist, Lorenzo Da Ponte, certainly knew the earlier opera.
Gazzaniga's work is much shorter than Mozart's, however, and originally formed part of a double-bill with another piece, Il capriccio drammatico.
Synopsis
With his manservant Pasquariello keeping watch outside, Don Giovanni attempts to seduce Donna Anna.
Donna Anna's father, the Commendatore, challenges Giovanni to a duel and is killed. Ottavio, Anna's fiancé, swears vengeance. Meanwhile Don Giovanni encounters his old lover. Donna Elvira.
As Don Giovanni woos Donna Ximena, Pasquariello gives Elvira a detailed account all his master's amorous conquests.
Maturina and Biagio, accompanied by a party of peasants, arrive. Maturina and Biagio are about to be married, but Don Giovanni chases off a furious Biagio and attempts (unsuccessfully) to seduce Maturina.
Don Giovanni and Pasquariello follow Ottavio when he visits the Commendatore's tomb.
Pasquariello is terrfied when he hears the statue accept an invitation to dinner.
Later that evening at Don Giovanni's house, Elvira pleads with the Don to mend his ways.
She leaves when he refuses.
Giovanni and Pasquariello enjoy their dinner and sing the praises of food, wine, and Venetian women.
The statue suddenly arrives and drags Don Giovanni to his death. Ottavio and the women enter.
Pasquariello and Lanterna describe Giovanni's fate to them.
The opera ends as all rejoice at his downfall.



Показать сообщения:    

Текущее время: 06-Дек 17:10

Часовой пояс: UTC + 3


Вы не можете начинать темы
Вы не можете отвечать на сообщения
Вы не можете редактировать свои сообщения
Вы не можете удалять свои сообщения
Вы не можете голосовать в опросах
Вы не можете прикреплять файлы к сообщениям
Вы не можете скачивать файлы