(Classical / Symphony) Anton Bruckner - Symphonie Nr. 4 «Romantische» / Антон Брукнер - Симфония № 4 «Романтическая» (Sachsische Staatskapelle Dresden, Giuseppe Sinopoli, 1987) - 1988, FLAC (tracks+.cue) lossless


 

[Цитировать]

Anton Bruckner | Антон Брукнер
(1824–1896)



Symphonie Nr. 4 «Romantische»
Симфония № 4 «Романтическая»


Sächsische Staatskapelle Dresden
Giuseppe Sinopoli conductor


Жанр: Classical / Symphony
Дата и место записи: Lukaskirche, Dresden, September 1987
Формат записи: DDD, Stereo
Год издания диска: 1988
Издатель (лейбл): Deutsche Grammophon
Номер по каталогу: 423 677-2
Аудиокодек: FLAC
Тип рипа: tracks+.cue
Битрейт аудио: lossless
Продолжительность: 1:06:58
Наличие сканов в содержимом раздачи: да
Источник: What.CD
Релизёр: hanswurst


Tracklist / Треклист
Symphonie Nr. 4 Es-dur «Romantische» - 1:06:58
I. Bewegt, nicht zu schnell - 18:51
  • II. Andante quasi Allegretto - 16:07
  • III. Scherzo: Bewegt. — Trio: Nicht zu schnell - 11:05
  • IV. Finale: Bewegt, doch nicht zu schnell - 20:56

    -

    EAC log / Отчёт EAC

    Exact Audio Copy V1.0 beta 3 from 29. August 2011
    EAC extraction logfile from 19. March 2012, 6:59
    Giuseppe Sinopoli & Staatskapelle Dresden / Anton Bruckner - Symphony No. 4
    Used drive : PLEXTOR CD-R PREMIUM2 Adapter: 3 ID: 0
    Read mode : Secure
    Utilize accurate stream : Yes
    Defeat audio cache : Yes
    Make use of C2 pointers : No
    Read offset correction : 30
    Overread into Lead-In and Lead-Out : Yes
    Fill up missing offset samples with silence : Yes
    Delete leading and trailing silent blocks : No
    Null samples used in CRC calculations : Yes
    Used interface : Native Win32 interface for Win NT & 2000
    Gap handling : Appended to previous track
    Used output format : User Defined Encoder
    Selected bitrate : 128 kBit/s
    Quality : High
    Add ID3 tag : No
    Command line compressor : D:\Programme\EAC10b2\Flac\flac.exe
    Additional command line options : -5 -V -T "ARTIST=%artist%" -T "TITLE=%title%" -T "ALBUM=%albumtitle%" -T "DATE=%year%" -T "TRACKNUMBER=%tracknr%" -T "TOTALTRACKS=%numtracks%" -T "GENRE=%genre%" -T "ALBUM ARTIST=%albumartist%" -T "ALBUMARTIST=%albumartist%" -T "COMPOSER=%albumcomposer%" -T "PERFORMER=%albuminterpret%" %haslyrics%-T "LYRICS=%lyrics%"%haslyrics% -T "COMMENT=EAC V1.0 beta 3, Secure Mode, Test & Copy, AccurateRip, FLAC -5" %source%
    TOC of the extracted CD
    Track | Start | Length | Start sector | End sector
    ---------------------------------------------------------
    1 | 0:00.33 | 18:50.62 | 33 | 84844
    2 | 18:51.20 | 16:06.50 | 84845 | 157344
    3 | 34:57.70 | 11:04.38 | 157345 | 207182
    4 | 46:02.33 | 20:56.12 | 207183 | 301394
    Track 1
    Filename E:\Share\Classical\A-E\Anton Bruckner - Symphony No. 4 (1988) [FLAC] {Sinopoli, DG 423 677-2}\01 - Bewegt, nicht zu schnell.wav
    Pre-gap length 0:00:02.44
    Peak level 99.8 %
    Extraction speed 10.5 X
    Track quality 100.0 %
    Test CRC 4EAD9353
    Copy CRC 4EAD9353
    Accurately ripped (confidence 7) [75283212] (AR v1)
    Copy OK
    Track 2
    Filename E:\Share\Classical\A-E\Anton Bruckner - Symphony No. 4 (1988) [FLAC] {Sinopoli, DG 423 677-2}\02 - Andante quasi Allegretto.wav
    Pre-gap length 0:00:03.82
    Peak level 87.6 %
    Extraction speed 13.5 X
    Track quality 100.0 %
    Test CRC 3CCC99D2
    Copy CRC 3CCC99D2
    Accurately ripped (confidence 7) [65D4D467] (AR v1)
    Copy OK
    Track 3
    Filename E:\Share\Classical\A-E\Anton Bruckner - Symphony No. 4 (1988) [FLAC] {Sinopoli, DG 423 677-2}\03 - Scherzo. Bewegt - Trio. Nicht zu schnell.wav
    Pre-gap length 0:00:06.49
    Peak level 73.4 %
    Extraction speed 15.3 X
    Track quality 100.0 %
    Test CRC 60D41370
    Copy CRC 60D41370
    Accurately ripped (confidence 7) [1C0F0EB7] (AR v1)
    Copy OK
    Track 4
    Filename E:\Share\Classical\A-E\Anton Bruckner - Symphony No. 4 (1988) [FLAC] {Sinopoli, DG 423 677-2}\04 - Finale. Bewegt, doch nicht zu schnell.wav
    Pre-gap length 0:00:04.00
    Peak level 98.6 %
    Extraction speed 10.1 X
    Track quality 100.0 %
    Test CRC E3385339
    Copy CRC E3385339
    Accurately ripped (confidence 7) [A12E2A7F] (AR v1)
    Copy OK
    All tracks accurately ripped
    No errors occurred
    End of status report
    ==== Log checksum 4AEDC0F064848C17B7C56FEED2D2E7906C68FB10C59FA9749172202EF936C07D ====

    auCDtect Task Manager log / Отчёт auCDtect Task Manager

    -----------------------
    DON'T MODIFY THIS FILE
    -----------------------
    PERFORMER: auCDtect Task Manager, ver. 1.5.1RC3 build 1.5.1.4
    Copyright (c) 2008-2010 y-soft. All rights reserved
    ANALYZER: auCDtect: CD records authenticity detector, version 0.8.2
    Copyright (c) 2004 Oleg Berngardt. All rights reserved.
    Copyright (c) 2004 Alexander Djourik. All rights reserved.
    FILE: 01 - Symphonie Nr. 4 Es-dur ''Romantische'' - I. Bewegt, nicht zu schnell.flac
    Size: 77162174 Hash: DE877857ED690C65FC2022736CF7549D Accuracy: -m0
    Conclusion: CDDA 100%
    Signature: 498A7F1C42E380495E4E06FC3302E684F8D22A61
    FILE: 04 - Symphonie Nr. 4 Es-dur ''Romantische'' - IV. Finale. Bewegt, doch nicht zu schnell.flac
    Size: 85520769 Hash: AAD57FC76F4E6C67F15484936AE5BF77 Accuracy: -m0
    Conclusion: CDDA 100%
    Signature: 6E9F34CDDB687921EC647C7E653C3A211A53B701
    FILE: 03 - Symphonie Nr. 4 Es-dur ''Romantische'' - III. Scherzo. Bewegt. - Trio. Nicht zu schnell.flac
    Size: 40734403 Hash: C0EDAE84D2A063EE548619B607670ACB Accuracy: -m0
    Conclusion: CDDA 100%
    Signature: 7827A07839174606A497FAB03892354E4410C6F3
    FILE: 02 - Symphonie Nr. 4 Es-dur ''Romantische'' - II. Andante quasi Allegretto.flac
    Size: 51923185 Hash: AE12F11E39A7EF44B2CA23455AD5BCF7 Accuracy: -m0
    Conclusion: CDDA 100%
    Signature: 141AA0891E2E7B679AE59E0E23EE9931C8DDA8AE

    CUETools log / Отчёт CUETools

    [CUETools log; Date: 24.09.2015 19:21:19; Version: 2.1.4]
    Pregap length 00:00:33.
    [AccurateRip ID: 000b74d1-002d6eb9-310fb204] found.
    Track [ CRC | V2 ] Status
    01 [75283212|8131400d] (08+10/18) Accurately ripped
    02 [65d4d467|a9b020cd] (08+10/18) Accurately ripped
    03 [1c0f0eb7|8a5b4a78] (08+10/18) Accurately ripped
    04 [a12e2a7f|bfbd863c] (08+10/18) Accurately ripped
    Track Peak [ CRC32 ] [W/O NULL] [ LOG ]
    -- 99,8 [F5B6852B] [40F99ADD]
    01 99,8 [4EAD9353] [1902C957] CRC32
    02 87,6 [3CCC99D2] [3DE19CAB] CRC32
    03 73,4 [60D41370] [6E220503] CRC32
    04 98,6 [E3385339] [2196184F] CRC32

    CUE sheet

    TITLE "Anton Bruckner: Symphonie Nr. 4 Es-dur «Romantische»"
    PERFORMER "Giuseppe Sinopoli"
    REM GENRE Classical
    REM DISCID 310FB204
    REM COMMENT "ExactAudioCopy v1.0b3"
    CATALOG 0028942367722
    FILE "01 - Symphonie Nr. 4 Es-dur ''Romantische'' - I. Bewegt, nicht zu schnell.flac" WAVE
    TRACK 01 AUDIO
    TITLE "Symphonie Nr. 4 Es-dur «Romantische»: I. Bewegt, nicht zu schnell"
    PERFORMER "Sächsische Staatskapelle Dresden, Giuseppe Sinopoli"
    REM DATE 1987
    PREGAP 00:00:33
    INDEX 01 00:00:00
    TRACK 02 AUDIO
    TITLE "Symphonie Nr. 4 Es-dur «Romantische»: II. Andante quasi Allegretto"
    PERFORMER "Sächsische Staatskapelle Dresden, Giuseppe Sinopoli"
    REM DATE 1987
    INDEX 00 18:47:00
    FILE "02 - Symphonie Nr. 4 Es-dur ''Romantische'' - II. Andante quasi Allegretto.flac" WAVE
    INDEX 01 00:00:00
    TRACK 03 AUDIO
    TITLE "Symphonie Nr. 4 Es-dur «Romantische»: III. Scherzo: Bewegt. — Trio: Nicht zu schnell"
    PERFORMER "Sächsische Staatskapelle Dresden, Giuseppe Sinopoli"
    REM DATE 1987
    INDEX 00 16:00:13
    FILE "03 - Symphonie Nr. 4 Es-dur ''Romantische'' - III. Scherzo. Bewegt. - Trio. Nicht zu schnell.flac" WAVE
    INDEX 01 00:00:00
    TRACK 04 AUDIO
    TITLE "Symphonie Nr. 4 Es-dur «Romantische»: IV. Finale: Bewegt, doch nicht zu schnell"
    PERFORMER "Sächsische Staatskapelle Dresden, Giuseppe Sinopoli"
    REM DATE 1987
    INDEX 00 11:00:38
    FILE "04 - Symphonie Nr. 4 Es-dur ''Romantische'' - IV. Finale. Bewegt, doch nicht zu schnell.flac" WAVE
    INDEX 01 00:00:00
    -



  • Показать сообщения:    

    Текущее время: 10-Дек 11:56

    Часовой пояс: UTC + 3


    Вы не можете начинать темы
    Вы не можете отвечать на сообщения
    Вы не можете редактировать свои сообщения
    Вы не можете удалять свои сообщения
    Вы не можете голосовать в опросах
    Вы не можете прикреплять файлы к сообщениям
    Вы не можете скачивать файлы