(Minimalism, piano, contemporary, modern classical) Arvo Part: Fur Anna Maria, Complete Piano Music [2CD's] (Jeroen van Veen, Sandra van Veen) - 2014, FLAC (tracks+.cue) lossless


 

[Цитировать]

Arvo Pärt: Für Anna Maria, Complete Piano Music

Жанр: Minimalism, piano, contemporary, modern classical
Страна-производитель диска: Manufactured and printed in the EU
Год издания диска: 2014
Издатель (лейбл): Brilliant Classics
Номер по каталогу: 95053
Дата записи: 2013, 2014
Аудиокодек: FLAC
Тип рипа: tracks+.cue
Битрейт аудио: lossless
Продолжительность: 01:59:25
Источник: релизер
сайт-источник/ник/другое: Australopithecina, demonoid
Наличие сканов в содержимом раздачи: да
Треклист:

скрытый текст

CD1
1 Für Alina (1976) 20'18
2 Variationen zur Gesundung von Arinuschka (1977) 5'56
3 Ukuaru valss (1973, rev. 2010) 2'54
4 Für Anna Maria (2006) 1'21
5 Für Alina (1976) 2'42
6 Spiegel im Spiegel* (1978) 8'25
7 Pari intervallo* (1976, rev. 2008) 5'28
8 Hymn to a Great City* (1984, rev. 2004) 5'14
9 Fratres* (1977, rev. 1980) 11'26
10 Für Anna Maria (2006) 1'09
11 Für Alina (1976) 3'15
CD2
1--4 Vier leichte Tanzstücke 'Musik für Kindertheater' (1956--57) 7'39
5--7 Sonatina No.1 (1959) 7'16
8--10 Sonatina No.2 (1959) 5'42
11--14 Partita Op.2 (1958) 7'19
15 Für Alina (1976) 23'07
Исполнители:

скрытый текст

Arvo Part
Fur Anna Maria & Complete Piano Music
Jeroen van Veen (piano)
Sandra van Veen (piano)
Douw Fonda (cello)
Лог создания рипа
CD1

скрытый текст

Exact Audio Copy V1.0 beta 3 from 29. August 2011
EAC extraction logfile from 12. October 2014, 19:38
Arvo Part / Fur Anna Maria, complete piano music
Used drive : PLEXTOR CD-R PREMIUM Adapter: 0 ID: 0
Read mode : Secure
Utilize accurate stream : Yes
Defeat audio cache : Yes
Make use of C2 pointers : No
Read offset correction : 30
Overread into Lead-In and Lead-Out : No
Fill up missing offset samples with silence : Yes
Delete leading and trailing silent blocks : No
Null samples used in CRC calculations : Yes
Used interface : Installed external ASPI interface
Gap handling : Appended to previous track
Used output format : User Defined Encoder
Selected bitrate : 1024 kBit/s
Quality : High
Add ID3 tag : No
Command line compressor : C:\Program Files (x86)\Exact Audio Copy\Flac\flac.exe
Additional command line options : -8 -V -T "ARTIST=%artist%" -T "TITLE=%title%" -T "ALBUM=%albumtitle%" -T "DATE=%year%" -T "TRACKNUMBER=%tracknr1%" -T "GENRE=%genre%" -T "PERFORMER=%albuminterpret%" -T "COMPOSER=%composer%" %haslyrics%--tag-from-file=LYRICS="%lyricsfile%"%haslyrics% -T "ALBUMARTIST=%albumartist%" -T "DISCNUMBER=%cdnumber%" -T "TOTALDISCS=%totalcds%" -T "TOTALTRACKS=%numtracks%" -T "COMMENT=%comment%" %source% -o %dest%
TOC of the extracted CD
Track | Start | Length | Start sector | End sector
---------------------------------------------------------
1 | 0:00.00 | 20:18.52 | 0 | 91401
2 | 20:18.52 | 5:56.24 | 91402 | 118125
3 | 26:15.01 | 2:54.09 | 118126 | 131184
4 | 29:09.10 | 1:21.22 | 131185 | 137281
5 | 30:30.32 | 2:41.26 | 137282 | 149382
6 | 33:11.58 | 5:27.02 | 149383 | 173909
7 | 38:38.60 | 5:08.63 | 173910 | 197072
8 | 43:47.48 | 1:07.51 | 197073 | 202148
9 | 44:55.24 | 3:15.52 | 202149 | 216825
10 | 48:11.01 | 11:52.49 | 216826 | 270274
11 | 60:03.50 | 9:10.52 | 270275 | 311576
Track 1
Filename C:\FLAC\01 - Fur Alina.wav
Pre-gap length 0:00:02.00
Peak level 55.7 %
Extraction speed 4.0 X
Track quality 100.0 %
Test CRC 0B50C46E
Copy CRC 0B50C46E
Accurately ripped (confidence 1) [DFDEC465] (AR v2)
Copy OK
Track 2
Filename C:\FLAC\02 - Variationen zur Gesundung von Arinuschka.wav
Peak level 62.5 %
Extraction speed 4.1 X
Track quality 100.0 %
Test CRC 6A320A18
Copy CRC 6A320A18
Accurately ripped (confidence 1) [00D2704E] (AR v2)
Copy OK
Track 3
Filename C:\FLAC\03 - Ukuaru valss.wav
Peak level 64.9 %
Extraction speed 3.7 X
Track quality 100.0 %
Test CRC B0E7AE58
Copy CRC B0E7AE58
Accurately ripped (confidence 1) [E2ED6B16] (AR v2)
Copy OK
Track 4
Filename C:\FLAC\04 - Fur Anna Maria.wav
Peak level 37.6 %
Extraction speed 2.2 X
Track quality 99.8 %
Test CRC 893B25B7
Copy CRC 893B25B7
Accurately ripped (confidence 1) [372FBCDD] (AR v2)
Copy OK
Track 5
Filename C:\FLAC\05 - Fur Alina.wav
Peak level 39.1 %
Extraction speed 3.0 X
Track quality 99.9 %
Test CRC 12926564
Copy CRC 12926564
Accurately ripped (confidence 1) [AE0AF6A5] (AR v2)
Copy OK
Track 6
Filename C:\FLAC\06 - Pari Intervallo.wav
Peak level 45.6 %
Extraction speed 3.6 X
Track quality 99.9 %
Test CRC 61D0A157
Copy CRC 61D0A157
Accurately ripped (confidence 1) [B2536232] (AR v2)
Copy OK
Track 7
Filename C:\FLAC\07 - Hymn to a Great City.wav
Peak level 83.5 %
Extraction speed 3.9 X
Track quality 100.0 %
Test CRC 21B77AC9
Copy CRC 21B77AC9
Accurately ripped (confidence 1) [EBD03ABA] (AR v2)
Copy OK
Track 8
Filename C:\FLAC\08 - Fur Anna Maria.wav
Peak level 30.9 %
Extraction speed 2.0 X
Track quality 99.8 %
Test CRC 3FE13F88
Copy CRC 3FE13F88
Accurately ripped (confidence 1) [4F456BA3] (AR v2)
Copy OK
Track 9
Filename C:\FLAC\09 - Fur Alina.wav
Peak level 36.2 %
Extraction speed 3.7 X
Track quality 100.0 %
Test CRC B9B0F47C
Copy CRC B9B0F47C
Accurately ripped (confidence 1) [EBABB781] (AR v2)
Copy OK
Track 10
Filename C:\FLAC\10 - Fratres.wav
Peak level 88.6 %
Extraction speed 3.5 X
Track quality 100.0 %
Test CRC E8628C29
Copy CRC E8628C29
Accurately ripped (confidence 1) [64480F92] (AR v2)
Copy OK
Track 11
Filename C:\FLAC\11 - Spiegel im Spiegel.wav
Peak level 64.4 %
Extraction speed 1.6 X
Track quality 100.0 %
Test CRC DF192007
Copy CRC DF192007
Accurately ripped (confidence 1) [04E9496C] (AR v2)
Copy OK
All tracks accurately ripped
No errors occurred
End of status report
---- CUETools DB Plugin V2.1.3
[CTDB TOCID: QIMmx6qh3VwIihdmcK7vYA4SkS8-] found, Submit result: already submitted
[4efc3c34] (1/1) Accurately ripped
==== Log checksum AD5F48DA33531D4AD4A4EAE65975946A7FCD3A7CD9AB52818689496C8B27A4C2 ====
CD2

скрытый текст

Exact Audio Copy V1.0 beta 3 from 29. August 2011
EAC extraction logfile from 12. October 2014, 20:19
Arvo Part / Fur Anna Maria, complete piano music
Used drive : PLEXTOR CD-R PREMIUM Adapter: 0 ID: 0
Read mode : Secure
Utilize accurate stream : Yes
Defeat audio cache : Yes
Make use of C2 pointers : No
Read offset correction : 30
Overread into Lead-In and Lead-Out : No
Fill up missing offset samples with silence : Yes
Delete leading and trailing silent blocks : No
Null samples used in CRC calculations : Yes
Used interface : Installed external ASPI interface
Gap handling : Appended to previous track
Used output format : User Defined Encoder
Selected bitrate : 1024 kBit/s
Quality : High
Add ID3 tag : No
Command line compressor : C:\Program Files (x86)\Exact Audio Copy\Flac\flac.exe
Additional command line options : -8 -V -T "ARTIST=%artist%" -T "TITLE=%title%" -T "ALBUM=%albumtitle%" -T "DATE=%year%" -T "TRACKNUMBER=%tracknr1%" -T "GENRE=%genre%" -T "PERFORMER=%albuminterpret%" -T "COMPOSER=%composer%" %haslyrics%--tag-from-file=LYRICS="%lyricsfile%"%haslyrics% -T "ALBUMARTIST=%albumartist%" -T "DISCNUMBER=%cdnumber%" -T "TOTALDISCS=%totalcds%" -T "TOTALTRACKS=%numtracks%" -T "COMMENT=%comment%" %source% -o %dest%
TOC of the extracted CD
Track | Start | Length | Start sector | End sector
---------------------------------------------------------
1 | 0:00.00 | 0:43.57 | 0 | 3281
2 | 0:43.57 | 2:15.05 | 3282 | 13411
3 | 2:58.62 | 2:06.25 | 13412 | 22886
4 | 5:05.12 | 2:35.05 | 22887 | 34516
5 | 7:40.17 | 2:33.08 | 34517 | 45999
6 | 10:13.25 | 4:18.24 | 46000 | 65373
7 | 14:31.49 | 0:25.39 | 65374 | 67287
8 | 14:57.13 | 1:52.53 | 67288 | 75740
9 | 16:49.66 | 2:03.25 | 75741 | 84990
10 | 18:53.16 | 1:47.69 | 84991 | 93084
11 | 20:41.10 | 0:50.49 | 93085 | 96883
12 | 21:31.59 | 1:04.41 | 96884 | 101724
13 | 22:36.25 | 3:16.64 | 101725 | 116488
14 | 25:53.14 | 2:09.00 | 116489 | 126163
15 | 28:02.14 | 23:07.10 | 126164 | 230198
Track 1
Filename C:\FLAC\01 - Vier leichte Tanzstucke - Der gestiefelte Kater.wav
Pre-gap length 0:00:02.00
Peak level 98.8 %
Extraction speed 2.4 X
Track quality 100.0 %
Test CRC 9C317FCE
Copy CRC 9C317FCE
Cannot be verified as accurate (confidence 4) [9402B6E2], AccurateRip returned [14CC7416] (AR v2)
Copy OK
Track 2
Filename C:\FLAC\02 - Vier leichte Tanzstucke - Rotkappchen und der Wolf.wav
Peak level 98.8 %
Extraction speed 3.4 X
Track quality 100.0 %
Test CRC 3C3792BD
Copy CRC 3C3792BD
Cannot be verified as accurate (confidence 4) [55A36DF5], AccurateRip returned [48B57232] (AR v2)
Copy OK
Track 3
Filename C:\FLAC\03 - Vier leichte Tanzstucke - Schmetterlinge.wav
Peak level 76.7 %
Extraction speed 3.4 X
Track quality 100.0 %
Test CRC 646C4F46
Copy CRC 646C4F46
Cannot be verified as accurate (confidence 4) [36869676], AccurateRip returned [C2DF6898] (AR v2)
Copy OK
Track 4
Filename C:\FLAC\04 - Vier leichte Tanzstucke -Tanz der Entenkuken.wav
Peak level 98.8 %
Extraction speed 3.6 X
Track quality 100.0 %
Test CRC E8A40C90
Copy CRC E8A40C90
Cannot be verified as accurate (confidence 4) [FFB8995C], AccurateRip returned [D961B042] (AR v2)
Copy OK
Track 5
Filename C:\FLAC\05 - Sonatina No.1 - Allegro.wav
Peak level 98.8 %
Extraction speed 3.6 X
Track quality 100.0 %
Test CRC 7E4F6AB3
Copy CRC 7E4F6AB3
Cannot be verified as accurate (confidence 3) [B54BF128], AccurateRip returned [0BE788AF] (AR v2)
Copy OK
Track 6
Filename C:\FLAC\06 - Sonatina No.1 - Larghetto.wav
Peak level 98.8 %
Extraction speed 3.4 X
Track quality 99.9 %
Test CRC F1EDE900
Copy CRC F1EDE900
Cannot be verified as accurate (confidence 3) [C82C3D1D], AccurateRip returned [ED22E92F] (AR v2)
Copy OK
Track 7
Filename C:\FLAC\07 - Sonatina No.1 - Allegro.wav
Peak level 98.7 %
Extraction speed 1.9 X
Track quality 100.0 %
Test CRC 70BDCE52
Copy CRC 70BDCE52
Cannot be verified as accurate (confidence 3) [C40C1BF6], AccurateRip returned [23503CFF] (AR v2)
Copy OK
Track 8
Filename C:\FLAC\08 - Sonatina No.2 - Allegro energico.wav
Peak level 98.8 %
Extraction speed 3.4 X
Track quality 100.0 %
Test CRC D8229F0F
Copy CRC D8229F0F
Cannot be verified as accurate (confidence 3) [6E0D1A25], AccurateRip returned [0AE51E93] (AR v2)
Copy OK
Track 9
Filename C:\FLAC\09 - Sonatina No.2 - Largo.wav
Peak level 56.7 %
Extraction speed 3.5 X
Track quality 100.0 %
Test CRC 7EBE160A
Copy CRC 7EBE160A
Cannot be verified as accurate (confidence 3) [566467D4], AccurateRip returned [F3DD5A41] (AR v2)
Copy OK
Track 10
Filename C:\FLAC\10 - Sonatina No.2 - Allegro.wav
Peak level 98.8 %
Extraction speed 3.3 X
Track quality 100.0 %
Test CRC 31052456
Copy CRC 31052456
Cannot be verified as accurate (confidence 3) [CC5434DB], AccurateRip returned [B152E68D] (AR v2)
Copy OK
Track 11
Filename C:\FLAC\11 - Partita Op.2 - Toccatina.wav
Peak level 98.8 %
Extraction speed 2.6 X
Track quality 100.0 %
Test CRC FCCDB184
Copy CRC FCCDB184
Cannot be verified as accurate (confidence 3) [BA502132], AccurateRip returned [705332D8] (AR v2)
Copy OK
Track 12
Filename C:\FLAC\12 - Partita Op.2 - Fughetta.wav
Peak level 81.0 %
Extraction speed 2.9 X
Track quality 100.0 %
Test CRC 37CCBF48
Copy CRC 37CCBF48
Cannot be verified as accurate (confidence 3) [DEC7B31B], AccurateRip returned [EA84A9A4] (AR v2)
Copy OK
Track 13
Filename C:\FLAC\13 - Partita Op.2 - Larghetto.wav
Peak level 73.0 %
Extraction speed 3.2 X
Track quality 99.9 %
Test CRC B48D267E
Copy CRC B48D267E
Cannot be verified as accurate (confidence 3) [1F645EBC], AccurateRip returned [A5DF75CB] (AR v2)
Copy OK
Track 14
Filename C:\FLAC\14 - Partita Op.2 - Ostinato.wav
Peak level 98.8 %
Extraction speed 3.5 X
Track quality 100.0 %
Test CRC A53C4E5F
Copy CRC A53C4E5F
Cannot be verified as accurate (confidence 3) [55E07955], AccurateRip returned [B3ABF877] (AR v2)
Copy OK
Track 15
Filename C:\FLAC\15 - Fur Alina.wav
Peak level 55.7 %
Extraction speed 4.2 X
Track quality 99.9 %
Test CRC 658D9B9B
Copy CRC 658D9B9B
Cannot be verified as accurate (confidence 3) [4A3B8029], AccurateRip returned [988BBD50] (AR v2)
Copy OK
No tracks could be verified as accurate
You may have a different pressing from the one(s) in the database
No errors occurred
End of status report
---- CUETools DB Plugin V2.1.3
[CTDB TOCID: Lofh1A9kCEn5tPHCa293Ddh40Z0-] found, Submit result: already submitted
[dceec3da] (09/10) No match
[2f56587f] (01/10) Accurately ripped
==== Log checksum CC2968E79DFE8E955EA46B698DDB6753E538B401F9D3867B390C9354C2C5DB56 ====
Содержание индексной карты (.CUE)
CD1

скрытый текст

REM GENRE Classical
REM DATE 2014
REM DISCID A3103A0B
REM COMMENT "ExactAudioCopy v1.0b3"
PERFORMER "Arvo Part"
TITLE "Fur Anna Maria, complete piano music"
FILE "01 - Fur Alina.wav" WAVE
TRACK 01 AUDIO
TITLE "Fur Alina"
PERFORMER "Arvo Part"
FLAGS DCP
INDEX 01 00:00:00
FILE "02 - Variationen zur Gesundung von Arinuschka.wav" WAVE
TRACK 02 AUDIO
TITLE "Variationen zur Gesundung von Arinuschka"
PERFORMER "Arvo Part"
FLAGS DCP
INDEX 01 00:00:00
FILE "03 - Ukuaru valss.wav" WAVE
TRACK 03 AUDIO
TITLE "Ukuaru valss"
PERFORMER "Arvo Part"
FLAGS DCP
INDEX 01 00:00:00
FILE "04 - Fur Anna Maria.wav" WAVE
TRACK 04 AUDIO
TITLE "Fur Anna Maria"
PERFORMER "Arvo Part"
FLAGS DCP
INDEX 01 00:00:00
FILE "05 - Fur Alina.wav" WAVE
TRACK 05 AUDIO
TITLE "Fur Alina"
PERFORMER "Arvo Part"
FLAGS DCP
INDEX 01 00:00:00
FILE "06 - Pari Intervallo.wav" WAVE
TRACK 06 AUDIO
TITLE "Pari Intervallo"
PERFORMER "Arvo Part"
FLAGS DCP
INDEX 01 00:00:00
FILE "07 - Hymn to a Great City.wav" WAVE
TRACK 07 AUDIO
TITLE "Hymn to a Great City"
PERFORMER "Arvo Part"
FLAGS DCP
INDEX 01 00:00:00
FILE "08 - Fur Anna Maria.wav" WAVE
TRACK 08 AUDIO
TITLE "Fur Anna Maria"
PERFORMER "Arvo Part"
FLAGS DCP
INDEX 01 00:00:00
FILE "09 - Fur Alina.wav" WAVE
TRACK 09 AUDIO
TITLE "Fur Alina"
PERFORMER "Arvo Part"
FLAGS DCP
INDEX 01 00:00:00
FILE "10 - Fratres.wav" WAVE
TRACK 10 AUDIO
TITLE "Fratres"
PERFORMER "Arvo Part"
FLAGS DCP
INDEX 01 00:00:00
FILE "11 - Spiegel im Spiegel.wav" WAVE
TRACK 11 AUDIO
TITLE "Spiegel im Spiegel"
PERFORMER "Arvo Part"
FLAGS DCP
INDEX 01 00:00:00
CD2

скрытый текст

REM GENRE Classical
REM DATE 2014
REM DISCID BC0BFD0F
REM COMMENT "ExactAudioCopy v1.0b3"
PERFORMER "Arvo Part"
TITLE "Fur Anna Maria, complete piano music"
FILE "01 - Vier leichte Tanzstucke - Der gestiefelte Kater.wav" WAVE
TRACK 01 AUDIO
TITLE "Vier leichte Tanzstucke - Der gestiefelte Kater "
PERFORMER "Arvo Part"
FLAGS DCP
INDEX 01 00:00:00
FILE "02 - Vier leichte Tanzstucke - Rotkappchen und der Wolf.wav" WAVE
TRACK 02 AUDIO
TITLE "Vier leichte Tanzstucke - Rotkappchen und der Wolf "
PERFORMER "Arvo Part"
FLAGS DCP
INDEX 01 00:00:00
FILE "03 - Vier leichte Tanzstucke - Schmetterlinge.wav" WAVE
TRACK 03 AUDIO
TITLE "Vier leichte Tanzstucke - Schmetterlinge "
PERFORMER "Arvo Part"
FLAGS DCP
INDEX 01 00:00:00
FILE "04 - Vier leichte Tanzstucke -Tanz der Entenkuken.wav" WAVE
TRACK 04 AUDIO
TITLE "Vier leichte Tanzstucke -Tanz der Entenkuken "
PERFORMER "Arvo Part"
FLAGS DCP
INDEX 01 00:00:00
FILE "05 - Sonatina No.1 - Allegro.wav" WAVE
TRACK 05 AUDIO
TITLE "Sonatina No.1 - Allegro "
PERFORMER "Arvo Part"
FLAGS DCP
INDEX 01 00:00:00
FILE "06 - Sonatina No.1 - Larghetto.wav" WAVE
TRACK 06 AUDIO
TITLE "Sonatina No.1 - Larghetto "
PERFORMER "Arvo Part"
FLAGS DCP
INDEX 01 00:00:00
FILE "07 - Sonatina No.1 - Allegro.wav" WAVE
TRACK 07 AUDIO
TITLE "Sonatina No.1 - Allegro "
PERFORMER "Arvo Part"
FLAGS DCP
INDEX 01 00:00:00
FILE "08 - Sonatina No.2 - Allegro energico.wav" WAVE
TRACK 08 AUDIO
TITLE "Sonatina No.2 - Allegro energico"
PERFORMER "Arvo Part"
FLAGS DCP
INDEX 01 00:00:00
FILE "09 - Sonatina No.2 - Largo.wav" WAVE
TRACK 09 AUDIO
TITLE "Sonatina No.2 - Largo"
PERFORMER "Arvo Part"
FLAGS DCP
INDEX 01 00:00:00
FILE "10 - Sonatina No.2 - Allegro.wav" WAVE
TRACK 10 AUDIO
TITLE "Sonatina No.2 - Allegro"
PERFORMER "Arvo Part"
FLAGS DCP
INDEX 01 00:00:00
FILE "11 - Partita Op.2 - Toccatina.wav" WAVE
TRACK 11 AUDIO
TITLE "Partita Op.2 - Toccatina "
PERFORMER "Arvo Part"
FLAGS DCP
INDEX 01 00:00:00
FILE "12 - Partita Op.2 - Fughetta.wav" WAVE
TRACK 12 AUDIO
TITLE "Partita Op.2 - Fughetta"
PERFORMER "Arvo Part"
FLAGS DCP
INDEX 01 00:00:00
FILE "13 - Partita Op.2 - Larghetto.wav" WAVE
TRACK 13 AUDIO
TITLE "Partita Op.2 - Larghetto"
PERFORMER "Arvo Part"
FLAGS DCP
INDEX 01 00:00:00
FILE "14 - Partita Op.2 - Ostinato.wav" WAVE
TRACK 14 AUDIO
TITLE "Partita Op.2 - Ostinato"
PERFORMER "Arvo Part"
FLAGS DCP
INDEX 01 00:00:00
FILE "15 - Fur Alina.wav" WAVE
TRACK 15 AUDIO
TITLE "Fur Alina"
PERFORMER "Arvo Part"
FLAGS DCP
INDEX 01 00:00:00
Доп. информация:

скрытый текст

Jeroen van Veen (piano), Sandra van Veen (piano) & Douw Fonda (cello)
Estonian composer Arvo Pärt is a unique figure in the musical world. The utter simplicity of his works, inspired by his deep religious feelings, has a strange, hypnotic power over the listener. Confronted with the stark, naked and essential musical lines, one feels close to the inner truth of oneself and the other, a human bond which only music can bring.
No wonder the music of Pärt, the cult figure, reaches beyond the boundaries of traditional classical audiences. Many recordings of Pärt achieve a bestselling status.
This 2CD set contains the complete music for piano, featuring the well-known ‘Spiegel im Spiegel’, and ‘Für Alina’ (not yet as popular as ‘Für Elise’, but well on its way…).
Played by the champion of Minimal Music, Jeroen van Veen, who recorded for Brilliant Classics several collections of minimalist piano music, and the complete piano music of Philip Glass. Including new recordings of Fratres and Spiegel im Spiegel for cello and piano.
“Jeroen van Veen’s recording can stand alongside the best from any source, and this set is worthy of high praise in every regard.” MusicWeb International, 5th November 2014



Показать сообщения:    

Текущее время: 05-Дек 01:25

Часовой пояс: UTC + 3


Вы не можете начинать темы
Вы не можете отвечать на сообщения
Вы не можете редактировать свои сообщения
Вы не можете удалять свои сообщения
Вы не можете голосовать в опросах
Вы не можете прикреплять файлы к сообщениям
Вы не можете скачивать файлы