(Opera, Vocal) Jose Carreras - First American Recital (Operatic Tenor Arias by Rossini, Verdi, Puccini, Bellini, Giordano, Italian Canzoni by Tosti, Bellini and Songs by Faure), 1975 - live from California - FLAC (tracks+.cue), lossless


 

[Цитировать]

José Carreras - First American Recital
Жанр: Opera, Vocal
Страна-производитель диска: США
Год издания диска: 1992
Издатель (лейбл): Legato Classics
Дата записи: 1975
Аудиокодек: FLAC
Тип рипа: tracks+.cue
Битрейт аудио: lossless
Продолжительность: 53:30
Источник: релизер (Guillermo)
Исполнители:
Jose Carreras, tenor.
Recorded live at Carmel, California, USA, October 14, 1975.

Лог создания рипа

Exact Audio Copy V1.0 beta 3 from 29. August 2011
EAC extraction logfile from 3. September 2015, 17:12
Artista desconocido / Título desconocido
Used drive : HL-DT-STDVDRAM GH24NSC0 Adapter: 3 ID: 0
Read mode : Secure
Utilize accurate stream : Yes
Defeat audio cache : Yes
Make use of C2 pointers : No
Read offset correction : 6
Overread into Lead-In and Lead-Out : No
Fill up missing offset samples with silence : Yes
Delete leading and trailing silent blocks : No
Null samples used in CRC calculations : Yes
Used interface : Native Win32 interface for Win NT & 2000
Gap handling : Appended to previous track
Used output format : User Defined Encoder
Selected bitrate : 768 kBit/s
Quality : High
Add ID3 tag : No
Command line compressor : C:\Program Files (x86)\Exact Audio Copy\FLAC\FLAC.EXE
Additional command line options : -8 -V -T "ARTIST=%artist%" -T "TITLE=%title%" -T "ALBUM=%albumtitle%" -T "DATE=%year%" -T "TRACKNUMBER=%tracknr%" -T "GENRE=%genre%" -T "PERFORMER=%albuminterpret%" -T "COMPOSER=%composer%" %haslyrics%--tag-from-file=LYRICS="%lyricsfile%"%haslyrics% -T "ALBUMARTIST=%albumartist%" -T "DISCNUMBER=%cdnumber%" -T "TOTALDISCS=%totalcds%" -T "TOTALTRACKS=%numtracks%" -T "COMMENT=%comment%" %source% -o %dest%
TOC of the extracted CD
Track | Start | Length | Start sector | End sector
---------------------------------------------------------
1 | 0:00.35 | 2:27.32 | 35 | 11091
2 | 2:27.67 | 3:22.08 | 11092 | 26249
3 | 5:50.00 | 2:32.65 | 26250 | 37714
4 | 8:22.65 | 4:24.50 | 37715 | 57564
5 | 12:47.40 | 6:40.62 | 57565 | 87626
6 | 19:28.27 | 2:42.43 | 87627 | 99819
7 | 22:10.70 | 2:38.17 | 99820 | 111686
8 | 24:49.12 | 2:56.73 | 111687 | 124959
9 | 27:46.10 | 3:08.25 | 124960 | 139084
10 | 30:54.35 | 1:34.25 | 139085 | 146159
11 | 32:28.60 | 5:18.57 | 146160 | 170066
12 | 37:47.42 | 3:28.40 | 170067 | 185706
13 | 41:16.07 | 3:38.15 | 185707 | 202071
14 | 44:54.22 | 2:48.00 | 202072 | 214671
15 | 47:42.22 | 3:25.60 | 214672 | 230106
16 | 51:08.07 | 2:26.00 | 230107 | 241056
Track 1
Filename f:\Users\Guillermo\Desktop\EAC convertidos\01 Pista01.wav
Pre-gap length 0:00:02.46
Peak level 39.2 %
Extraction speed 1.3 X
Track quality 100.0 %
Test CRC 7192674B
Copy CRC 7192674B
Copy OK
Track 2
Filename f:\Users\Guillermo\Desktop\EAC convertidos\02 Pista02.wav
Pre-gap length 0:00:01.40
Peak level 49.2 %
Extraction speed 1.5 X
Track quality 100.0 %
Test CRC 220A88CF
Copy CRC 220A88CF
Copy OK
Track 3
Filename f:\Users\Guillermo\Desktop\EAC convertidos\03 Pista03.wav
Pre-gap length 0:00:02.40
Peak level 60.4 %
Extraction speed 1.5 X
Track quality 100.0 %
Test CRC A88273CD
Copy CRC A88273CD
Copy OK
Track 4
Filename f:\Users\Guillermo\Desktop\EAC convertidos\04 Pista04.wav
Peak level 70.8 %
Extraction speed 1.8 X
Track quality 100.0 %
Test CRC 57F82078
Copy CRC 57F82078
Copy OK
Track 5
Filename f:\Users\Guillermo\Desktop\EAC convertidos\05 Pista05.wav
Peak level 58.6 %
Extraction speed 2.1 X
Track quality 100.0 %
Test CRC 90836E5E
Copy CRC 90836E5E
Copy OK
Track 6
Filename f:\Users\Guillermo\Desktop\EAC convertidos\06 Pista06.wav
Peak level 62.3 %
Extraction speed 1.9 X
Track quality 100.0 %
Test CRC B1054AE1
Copy CRC B1054AE1
Copy OK
Track 7
Filename f:\Users\Guillermo\Desktop\EAC convertidos\07 Pista07.wav
Pre-gap length 0:00:00.30
Peak level 51.9 %
Extraction speed 2.0 X
Track quality 100.0 %
Test CRC 37D39ADE
Copy CRC 37D39ADE
Copy OK
Track 8
Filename f:\Users\Guillermo\Desktop\EAC convertidos\08 Pista08.wav
Peak level 45.1 %
Extraction speed 2.1 X
Track quality 100.0 %
Test CRC E5A34C2C
Copy CRC E5A34C2C
Copy OK
Track 9
Filename f:\Users\Guillermo\Desktop\EAC convertidos\09 Pista09.wav
Peak level 54.6 %
Extraction speed 1.8 X
Track quality 99.8 %
Test CRC 91E2DDC6
Copy CRC 91E2DDC6
Copy OK
Track 10
Filename f:\Users\Guillermo\Desktop\EAC convertidos\10 Pista10.wav
Peak level 45.0 %
Extraction speed 1.4 X
Track quality 99.7 %
Test CRC D4386563
Copy CRC D4386563
Copy OK
Track 11
Filename f:\Users\Guillermo\Desktop\EAC convertidos\11 Pista11.wav
Peak level 67.9 %
Extraction speed 2.6 X
Track quality 100.0 %
Test CRC F2EDC002
Copy CRC F2EDC002
Copy OK
Track 12
Filename f:\Users\Guillermo\Desktop\EAC convertidos\12 Pista12.wav
Pre-gap length 0:00:00.22
Peak level 71.3 %
Extraction speed 2.5 X
Track quality 100.0 %
Test CRC E8E6EFC8
Copy CRC E8E6EFC8
Copy OK
Track 13
Filename f:\Users\Guillermo\Desktop\EAC convertidos\13 Pista13.wav
Peak level 62.7 %
Extraction speed 2.6 X
Track quality 100.0 %
Test CRC 89917942
Copy CRC 89917942
Copy OK
Track 14
Filename f:\Users\Guillermo\Desktop\EAC convertidos\14 Pista14.wav
Peak level 99.9 %
Extraction speed 2.6 X
Track quality 100.0 %
Test CRC 151C00D4
Copy CRC 151C00D4
Copy OK
Track 15
Filename f:\Users\Guillermo\Desktop\EAC convertidos\15 Pista15.wav
Peak level 99.9 %
Extraction speed 2.7 X
Track quality 100.0 %
Test CRC 26954ACE
Copy CRC 26954ACE
Copy OK
Track 16
Filename f:\Users\Guillermo\Desktop\EAC convertidos\16 Pista16.wav
Peak level 92.7 %
Extraction speed 2.5 X
Track quality 100.0 %
Test CRC BD83A88F
Copy CRC BD83A88F
Copy OK
No errors occurred
End of status report
==== Log checksum 5324D7D21657D932C188027D80EA09C14BE0305C0B7D24C4A88558B11FE65564 ====

Содержание индексной карты (.CUE)

REM DISCID EF0C8E10
REM COMMENT "ExactAudioCopy v1.0b3"
FILE "01 Pista01.wav" WAVE
TRACK 01 AUDIO
PREGAP 00:00:35
INDEX 01 00:00:00
TRACK 02 AUDIO
INDEX 00 02:26:02
FILE "02 Pista02.wav" WAVE
INDEX 01 00:00:00
TRACK 03 AUDIO
INDEX 00 03:19:53
FILE "03 Pista03.wav" WAVE
INDEX 01 00:00:00
FILE "04 Pista04.wav" WAVE
TRACK 04 AUDIO
INDEX 01 00:00:00
FILE "05 Pista05.wav" WAVE
TRACK 05 AUDIO
INDEX 01 00:00:00
FILE "06 Pista06.wav" WAVE
TRACK 06 AUDIO
INDEX 01 00:00:00
TRACK 07 AUDIO
INDEX 00 02:42:20
FILE "07 Pista07.wav" WAVE
INDEX 01 00:00:00
FILE "08 Pista08.wav" WAVE
TRACK 08 AUDIO
INDEX 01 00:00:00
FILE "09 Pista09.wav" WAVE
TRACK 09 AUDIO
INDEX 01 00:00:00
FILE "10 Pista10.wav" WAVE
TRACK 10 AUDIO
INDEX 01 00:00:00
FILE "11 Pista11.wav" WAVE
TRACK 11 AUDIO
INDEX 01 00:00:00
TRACK 12 AUDIO
INDEX 00 05:18:40
FILE "12 Pista12.wav" WAVE
INDEX 01 00:00:00
FILE "13 Pista13.wav" WAVE
TRACK 13 AUDIO
INDEX 01 00:00:00
FILE "14 Pista14.wav" WAVE
TRACK 14 AUDIO
INDEX 01 00:00:00
FILE "15 Pista15.wav" WAVE
TRACK 15 AUDIO
INDEX 01 00:00:00
FILE "16 Pista16.wav" WAVE
TRACK 16 AUDIO
INDEX 01 00:00:00

Треклист

Umberto Giordano - Fedora: Amor ti Vieta
Giacomo Puccini - Turandot: Nessun dorma
Giuseppe Verdi - Jérusalem: Je veux encore entendre
Gioachino Rossini - La Pietra del Paragone: Oh come il fosco
Paolo Tosti:
L'alba sepàra dalla luce l'ombra
Malia
Ideale
Juan Remigo Alvarez - La Partida
Manuel de Falla:
Seguidilla murciana
Jota
Gabriel Urbain Fauré:
Lydia
Après un rêve
Vincenzo Bellini:
I Capuleti e i Montecchi: Ecco la tomba
Vaga luna, che inargenti
Dolente immagine di Fille mia
Il Fervido Desiderio



Показать сообщения:    

Текущее время: 07-Дек 23:20

Часовой пояс: UTC + 3


Вы не можете начинать темы
Вы не можете отвечать на сообщения
Вы не можете редактировать свои сообщения
Вы не можете удалять свои сообщения
Вы не можете голосовать в опросах
Вы не можете прикреплять файлы к сообщениям
Вы не можете скачивать файлы