[TR24][OF] Jonas Kaufmann - Nessun Dorma: The Puccini Album (Operatic Tenor Arias by Giacomo Puccini), Antonio Pappano - 2015 (Opera, Vocal, Classical)


Статистика раздачи [Обновить пиров]
Размер:  1.15 GB   |    Зарегистрирован:  8 месяцев 14 дней   |    Скачан:  0 раз

Полного источника не было: Никогда

 
   
 
 
 

[Цитировать]

Jonas Kaufmann - Nessun Dorma: The Puccini Album
Формат записи/Источник записи: [TR24][OF]
Наличие водяных знаков: Нет
Год издания/переиздания диска: 2015
Жанр: Opera, Vocal, Classical
Издатель(лейбл): Sony Classical
Продолжительность: 60:43
Исполнители:
Jonas Kaufmann, tenor,
Kristine Opolais, soprano (tracks 2, 3, 7),
Massimo Simeoli, baritone (track 4),
Antonio Pirozzi, bass (track 15),
Antonio Pappano, Conductor,
Accademia Nazionale di Santa Cecilia Orchestra and Chorus.
Recorded at The Santa Cecilia Hall in Rome, September 14, 2014 - September 21, 2014.
Контейнер: FLAC (*.flac)
Тип рипа: tracks
Разрядность: 24/96
Количество каналов: 2.0
Источник: qobuz

Треклист

Operas by Giacomo Puccini:
Manon Lescaut:
1. Act I: Donna Non Vidi Mai
2. Act II: Oh, Sarò La Più Bella!... Tu, Tu, Amore? Tu?
3. Act II: Ah! Manon, Mi Tradisce
4. Act III: Presto! In Fila!...Ah! Non V'Avvicinate!
5. Le Villi - Act II: Ei Giunge!...Torna Ai Felici Dì
6. Edgar - Act II: Orgia, Chimera Dall'Occhio Vitreo
7. La Bohème - Act I: O Soave Fanciulla
8. Tosca - Act I: Recondita Armonia
9. Madama Butterfly - Act III: Addio, Fiorito Asil
La Fanciulla Del West:
10. Act II: Una Parola Sola!... Or Son Sei Mesi
11. Act III: Risparmiate Lo Scherno...Ch'ella Mi Creda Libero
12. La Rondine - Act I: Parigi! È La Città Dei Desideri
13. Il Tabarro - Hai Ben Ragione
14. Gianni Schicchi - Avete Torto!...Firenze È Come Un Albero Fiorito
Turandot:
15. Act I: Non Piangere, Liù!
16. Act III: Nessun Dorma

Dynamic Range Meter

foobar2000 1.3.6 / Замер динамического диапазона (DR) 1.1.1
Дата отчёта: 2015-09-25 16:37:43
--------------------------------------------------------------------------------
Анализ: Jonas Kaufmann, Orchestra dell'Accademia Nazionale di Santa Cecilia & Antonio Pappano / Nessun Dorma - The Puccini Album
--------------------------------------------------------------------------------
DR Пики RMS Продолжительность трека
--------------------------------------------------------------------------------
DR13 -1.49 дБ -19.27 дБ 2:31 01-Manon Lescaut, Atto I: "Donna non vidi mai"
DR13 -0.32 дБ -19.13 дБ 7:45 02-Manon Lescaut, Atto II: "Oh, sarò la più bella!... Tu, tu, amore? Tu?"
DR12 -0.32 дБ -18.42 дБ 2:43 03-Manon Lescaut, Atto II: "Ah! Manon mi tradisce"
DR12 -0.32 дБ -15.92 дБ 3:38 04-Manon Lescaut, Atto III:"Presto! In fila!... Non v'avvicinate! No, pazzo son!"
DR14 -0.32 дБ -19.80 дБ 7:29 05-Le Villi, Atto II: "Ei giunge!... Torna ai felici dì"
DR13 -1.00 дБ -21.85 дБ 5:11 06-Edgar, Atto II: "Orgia, chimera dall'occhio vitreo"
DR15 -0.32 дБ -21.55 дБ 4:15 07-La Bohème Atto I: "O soave fanciulla"
DR13 -1.34 дБ -20.13 дБ 2:57 08-Tosca, Atto I: "Recondita armonia"
DR11 -0.85 дБ -18.29 дБ 1:50 09-Madama Butterfly, Atto III: "Addio, fiorito asil"
DR13 -0.32 дБ -19.17 дБ 3:33 10-La Fanciulla del West, Atto II: "Una parola sola!... Or son sei mesi"
DR13 -2.13 дБ -20.41 дБ 4:39 11-La Fanciulla del West, Atto III: "Risparmiate lo scherno... Ch'ella mi creda libero"
DR12 -5.09 дБ -24.08 дБ 2:59 12-La Rondine, Atto I: "Parigi! È la città dei desideri"
DR13 -0.32 дБ -19.50 дБ 2:31 13-Il Tabarro: "Hai ben ragione"
DR13 -0.32 дБ -18.11 дБ 3:01 14-Gianni Schicchi: "Avete torto!... Firenze e come un albero fiorito"
DR12 -0.32 дБ -20.02 дБ 2:41 15-Turandot, Atto I: "Non piangere, Liù!"
DR11 -0.32 дБ -16.92 дБ 3:10 16-Nessun Dorma - The Puccini album - Album Preview Player
--------------------------------------------------------------------------------
Количество треков: 16
Реальные значения DR: DR13
Частота: 96000 Гц
Каналов: 2
Разрядность: 24
Битрейт: 2714 кбит/с
Кодек: FLAC
================================================================================
[teatrix.ru].t22327.torrent 
Торрент: Зарегистрирован [ 2016-03-20 12:37 ] · 9225CDD2C9A7F3677A795C814E0ADFB95433C473

Скачать .torrent

Скачать

14 KB

Статус: проверено
Скачан: 0 раз
Размер: 1.15 GB
terms.php



Быстрый ответ

Имя:

      
Для отправки сообщений необходимо включить JavaScript
Показать сообщения:    

Текущее время: 03-Дек 20:45

Часовой пояс: UTC + 3


Вы можете начинать темы
Вы можете отвечать на сообщения
Вы не можете редактировать свои сообщения
Вы не можете удалять свои сообщения
Вы не можете голосовать в опросах
Вы не можете прикреплять файлы к сообщениям
Вы можете скачивать файлы