(Opera) José Carreras - Selections from Operas • Verdi • Donizetti • Paolo Tosti (Carreras, Scotto, Guglielmi, Davia - Queler, Rudel, Verschi, Santi) - 1997, APE (image+.cue) lossless


 

[Цитировать]

José Carreras - Selections from Operas • Verdi • Donizetti • Paolo Tosti
Жанр: Opera
Страна-производитель диска: Belgium
Год издания диска: 1997
Издатель (лейбл): Golden Stars
Номер по каталогу: GSS 5139
Дата записи: 1972-1976
Аудиокодек: APE
Тип рипа: image+.cue
Битрейт аудио: lossless
Продолжительность: 49'10
Источник: собственный рип
Наличие сканов в содержимом раздачи: да
Треклист / Исполнители:
1. La mia letizia infondere [Verdi-I Lombardi with Renata Scotto-Queler, New York 1972]
2. Oh belle, a questra misera'- 'Al'armi!... Che ascolto! [Verdi-I Lombardi with Renata Scotto-Queler, New York 1972]
3. Questo o quella [Verdi-Rigoletto-Rudel, New York 1973]
4. Ella mi fu rapita!' - 'Parmi veder le lagrime [Verdi-Rigoletto-Rudel, New York 1973]
5. La donna é mobile [Verdi-Rigoletto-Rudel, New York 1973]
6. Brindisi: 'Libamo ne'lieti calici [Verdi-La Traviata with Renata Scotto-Verschi Tokyo 1973]
7. 'Lunge da lei... De' miei bollenti spiriti [Verdi-La Traviata-Verschi Tokyo 1973"]
8. S'avanza il Conte' ... 'La rivedr´a nell'estasi [Verdi-Un Ballo In Maschera with Guglielmi, Davia, Foiani-Molinari-Pradelli La Scala]
9. Ma se m'e forza perderti'...'Ah! dessa é l´a [Verdi-Un Ballo In Maschera with Margherita Guglielmi-Molinari-Pradelli La Scala 1975]
10. Ah!, rimiro il bel sembiante [Donizetti-Maria Stuardi with Maurizio Mazzieri-Santi Paris 1972]
11. Ideale [Paolo Tosti with piano Carmel California 1975]
12. Malia [Paolo Tosti with piano Carmel California 1975]
13. L'alba separa dalla luce lombra [Paolo Tosti with piano Carmel California 1975]

Лог создания рипа

Exact Audio Copy V1.0 beta 6 from 9. April 2015
EAC extraction logfile from 25. September 2015, 14:10
José Garreras / Selections from Verdi, Donizetti, Paolo Tosti
Used drive : HL-DT-STDVDRAM GH22NS50 Adapter: 1 ID: 0
Read mode : Secure
Utilize accurate stream : Yes
Defeat audio cache : Yes
Make use of C2 pointers : No
Read offset correction : 667
Overread into Lead-In and Lead-Out : No
Fill up missing offset samples with silence : Yes
Delete leading and trailing silent blocks : No
Null samples used in CRC calculations : Yes
Used interface : Native Win32 interface for Win NT & 2000
Used output format : Monkey's Audio Lossless Encoder
Selected bitrate : High Lossless Compression
Quality : High
Add ID3 tag : Yes
Command line compressor : C:\Program Files (x86)\Exact Audio Copy\MAC\MAC.exe
TOC of the extracted CD
Track | Start | Length | Start sector | End sector
---------------------------------------------------------
1 | 0:00.32 | 2:18.00 | 32 | 10381
2 | 2:18.32 | 5:17.00 | 10382 | 34156
3 | 7:35.32 | 1:57.50 | 34157 | 42981
4 | 9:33.07 | 5:52.50 | 42982 | 69431
5 | 15:25.57 | 2:29.63 | 69432 | 80669
6 | 17:55.45 | 3:24.25 | 80670 | 95994
7 | 21:19.70 | 4:13.12 | 95995 | 114981
8 | 25:33.07 | 4:01.63 | 114982 | 133119
9 | 29:34.70 | 4:50.25 | 133120 | 154894
10 | 34:25.20 | 4:40.37 | 154895 | 175931
11 | 39:05.57 | 3:34.00 | 175932 | 191981
12 | 42:39.57 | 3:42.63 | 191982 | 208694
13 | 46:22.45 | 2:47.30 | 208695 | 221249
Range status and errors
Selected range
Filename D:\EAC\José Garreras - Selections from Verdi, Donizetti, Paolo Tosti.wav
Peak level 88.3 %
Extraction speed 1.7 X
Range quality 100.0 %
Test CRC 187A3CDD
Copy CRC 187A3CDD
Copy OK
No errors occurred
AccurateRip summary
Track 1 accurately ripped (confidence 2) [17510EE5] (AR v1)
Track 2 accurately ripped (confidence 2) [1E9E1663] (AR v1)
Track 3 accurately ripped (confidence 2) [C5132D86] (AR v1)
Track 4 accurately ripped (confidence 2) [3AED95AF] (AR v1)
Track 5 accurately ripped (confidence 2) [83F79276] (AR v1)
Track 6 accurately ripped (confidence 2) [BACBB84A] (AR v1)
Track 7 accurately ripped (confidence 2) [5EE6DAD9] (AR v1)
Track 8 accurately ripped (confidence 2) [521B546E] (AR v1)
Track 9 accurately ripped (confidence 2) [8D1EEF36] (AR v1)
Track 10 accurately ripped (confidence 2) [25995C3E] (AR v1)
Track 11 accurately ripped (confidence 2) [E3E8373A] (AR v1)
Track 12 accurately ripped (confidence 2) [1F0CF7F3] (AR v1)
Track 13 accurately ripped (confidence 2) [22FAA10D] (AR v1)
All tracks accurately ripped
End of status report
---- CUETools DB Plugin V2.1.6
[CTDB TOCID: P3VROfeEPL9Ax8wvuQnhpQyHVmw-] disk not present in database
Submit result: P3VROfeEPL9Ax8wvuQnhpQyHVmw- has been uploaded
==== Log checksum CE0C85CDFD045E6DF628D26C57CEBC75819183133873F4E7BA5F70383521B170 ====

Содержание индексной карты (.CUE)

REM GENRE Opera
REM DATE 1996
REM DISCID BA0B860D
REM COMMENT "ExactAudioCopy v1.0b6"
CATALOG 0000000000000
PERFORMER "José Garreras"
TITLE "Selections from Verdi, Donizetti, Paolo Tosti"
FILE "José Garreras - Selections from Verdi, Donizetti, Paolo Tosti.ape" WAVE
TRACK 01 AUDIO
TITLE "'La mia letizia infondere'"
PERFORMER "Verdi-I Lombardi with Renata Scotto-Queler, New York 1972"
INDEX 00 00:00:00
INDEX 01 00:00:32
TRACK 02 AUDIO
TITLE "'Oh belle, a questra misera'- 'Al'armi!... Che ascolto!'"
PERFORMER "Verdi-I Lombardi with Renata Scotto-Queler, New York 1972"
INDEX 00 02:11:35
INDEX 01 02:18:32
TRACK 03 AUDIO
TITLE "'Questo o quella'"
PERFORMER "Verdi-Rigoletto-Rudel, New York 1973"
INDEX 00 07:28:35
INDEX 01 07:35:32
TRACK 04 AUDIO
TITLE "'Ella mi fu rapita!' - 'Parmi veder le lagrime'"
PERFORMER "Verdi-Rigoletto-Rudel, New York 1973"
INDEX 00 09:26:12
INDEX 01 09:33:07
TRACK 05 AUDIO
TITLE "'La donna é mobile'"
PERFORMER "Verdi-Rigoletto-Rudel, New York 1973"
INDEX 00 15:19:55
INDEX 01 15:25:57
TRACK 06 AUDIO
TITLE "Brindisi: 'Libamo ne'lieti calici'"
PERFORMER "Verdi-La Traviata with Renata Scotto-Verschi Tokyo 1973"
INDEX 00 17:48:42
INDEX 01 17:55:45
TRACK 07 AUDIO
TITLE "'Lunge da lei... De' miei bollenti spiriti'"
PERFORMER "Verdi-La Traviata-Verschi Tokyo 1973"
INDEX 00 21:12:73
INDEX 01 21:19:70
TRACK 08 AUDIO
TITLE "'S'avanza il Conte' ... 'La rivedr´a nell'estasi'"
PERFORMER "Verdi-Un Ballo In Maschera with Guglielmi, Davia, Foiani-Molinari-Pradelli La..."
INDEX 00 25:26:07
INDEX 01 25:33:07
TRACK 09 AUDIO
TITLE "'Ma se m'e forza perderti'...'Ah! dessa é l´a'"
PERFORMER "Verdi-Un Ballo In Maschera with Margherita Guglielmi-Pradelli La Scala 1975"
INDEX 00 29:27:66
INDEX 01 29:34:70
TRACK 10 AUDIO
TITLE "'Ah!, rimiro il bel sembiante'"
PERFORMER "Donizetti-Maria Stuardi with Maurizio Mazzieri-Santi Paris 1972"
INDEX 00 34:18:15
INDEX 01 34:25:20
TRACK 11 AUDIO
TITLE "'Ideale'"
PERFORMER "Paolo Tosti with piano Carmel California 1975"
INDEX 00 38:58:57
INDEX 01 39:05:57
TRACK 12 AUDIO
TITLE "'Malia'"
PERFORMER "Paolo Tosti with piano Carmel California 1975"
INDEX 00 42:32:57
INDEX 01 42:39:57
TRACK 13 AUDIO
TITLE "'L'alba separa dalla luce lombra'"
PERFORMER "Paolo Tosti with piano Carmel California 1975"
INDEX 00 46:15:50
INDEX 01 46:22:45



Показать сообщения:    

Текущее время: 03-Дек 14:38

Часовой пояс: UTC + 3


Вы не можете начинать темы
Вы не можете отвечать на сообщения
Вы не можете редактировать свои сообщения
Вы не можете удалять свои сообщения
Вы не можете голосовать в опросах
Вы не можете прикреплять файлы к сообщениям
Вы не можете скачивать файлы