(Medievel, Vocal) Alba - Die tenschen morder (Meister Rumelant, minnesinger at the Danehof court (1287) - Christensen, Andersén, Hexbro) - 2002, APE (image+.cue) lossless


 

[Цитировать]

Alba - Die tenschen morder
Жанр: Medievel, Vocal
Страна-производитель диска: Germany
Год издания диска: 2002
Издатель (лейбл): TIM
Номер по каталогу: 22079-205
Дата записи: 2002
Аудиокодек: APE
Тип рипа: image+.cue
Битрейт аудио: lossless
Продолжительность: 53'02
Источник: собственный рип
Наличие сканов в содержимом раздачи: да
Треклист:
1. Die tenschen morder
2. Estampie - Got herre almechtich (instr.)
3. Got herre almechtich
4. Alle kvninge, vursten, herren, ritter.
5. Got in vier elementen sich erscheynet (instr.)
6. Daz Gedeones wollenvlivs
7. Der sich so ho gesetzet hat
8. Got in vil hohen vreuden saz
9. Got in vier elementen sich erscheynet
10. Estampie - Der wisen heyden Cato (instr.)
11. Der kvninc Nabugodonosor
Исполнители:
ALBA:
Agnethe Christensen - voice
Miriam Andersén - voice, harp
Paul Hexbro - pipe & tabor, doublepipe, triangle

Лог создания рипа

Exact Audio Copy V1.0 beta 6 from 9. April 2015
EAC extraction logfile from 25. September 2015, 12:46
Christensen, Andersén, Hexbro [Meister Rumelant] / Alba - Die Tenschen Morder
Used drive : TS8XDVDSTRANSCEND Adapter: 1 ID: 1
Read mode : Secure
Utilize accurate stream : Yes
Defeat audio cache : Yes
Make use of C2 pointers : No
Read offset correction : 6
Overread into Lead-In and Lead-Out : No
Fill up missing offset samples with silence : Yes
Delete leading and trailing silent blocks : No
Null samples used in CRC calculations : Yes
Used interface : Native Win32 interface for Win NT & 2000
Used output format : Monkey's Audio Lossless Encoder
Selected bitrate : High Lossless Compression
Quality : High
Add ID3 tag : Yes
Command line compressor : C:\Program Files (x86)\Exact Audio Copy\MAC\MAC.exe
TOC of the extracted CD
Track | Start | Length | Start sector | End sector
---------------------------------------------------------
1 | 0:00.00 | 6:13.45 | 0 | 28019
2 | 6:13.45 | 2:04.62 | 28020 | 37381
3 | 8:18.32 | 4:07.19 | 37382 | 55925
4 | 12:25.51 | 4:42.14 | 55926 | 77089
5 | 17:07.65 | 1:56.26 | 77090 | 85815
6 | 19:04.16 | 3:37.24 | 85816 | 102114
7 | 22:41.40 | 6:09.10 | 102115 | 129799
8 | 28:50.50 | 7:26.19 | 129800 | 163268
9 | 36:16.69 | 9:10.65 | 163269 | 204583
10 | 45:27.59 | 2:33.16 | 204584 | 216074
11 | 48:01.00 | 4:59.39 | 216075 | 238538
Range status and errors
Selected range
Filename D:\EAC\Alba - Die Tenschen Morder.wav
Peak level 100.0 %
Extraction speed 2.6 X
Range quality 100.0 %
Test CRC EE2999F0
Copy CRC EE2999F0
Copy OK
No errors occurred
AccurateRip summary
Track 1 accurately ripped (confidence 2) [88373724] (AR v1)
Track 2 accurately ripped (confidence 2) [157B1F42] (AR v1)
Track 3 accurately ripped (confidence 2) [8CB36B90] (AR v1)
Track 4 accurately ripped (confidence 2) [955DF143] (AR v1)
Track 5 accurately ripped (confidence 2) [FCE0CF68] (AR v1)
Track 6 accurately ripped (confidence 2) [E3C4866F] (AR v1)
Track 7 accurately ripped (confidence 2) [1C4E3DBD] (AR v1)
Track 8 accurately ripped (confidence 2) [BD7B023F] (AR v1)
Track 9 accurately ripped (confidence 2) [CA85BE84] (AR v1)
Track 10 accurately ripped (confidence 2) [FDC186D8] (AR v1)
Track 11 accurately ripped (confidence 2) [4E11C998] (AR v1)
All tracks accurately ripped
End of status report
---- CUETools DB Plugin V2.1.6
[CTDB TOCID: jLxICSKEhRac6zbey8LUik_6RC4-] found
Submit result: unrecognized or virtual drive
Track | CTDB Status
1 | (3/3) Accurately ripped
2 | (3/3) Accurately ripped
3 | (3/3) Accurately ripped
4 | (3/3) Accurately ripped
5 | (3/3) Accurately ripped
6 | (3/3) Accurately ripped
7 | (3/3) Accurately ripped
8 | (3/3) Accurately ripped
9 | (3/3) Accurately ripped
10 | (3/3) Accurately ripped
11 | (3/3) Accurately ripped
==== Log checksum ED6E135BE20698A25AC45832528DE5C18E20E545410B21C32AEF07B8E8FDF8A2 ====

Содержание индексной карты (.CUE)

REM GENRE Medievel
REM DATE 2000
REM DISCID 950C6C0B
REM COMMENT "ExactAudioCopy v1.0b6"
PERFORMER "Christensen, Andersén, Hexbro [Meister Rumelant]"
TITLE "Alba - Die Tenschen Morder"
FILE "Alba - Die Tenschen Morder.ape" WAVE
TRACK 01 AUDIO
TITLE "Die tenschen morder"
PERFORMER "Christensen, Andersén, Hexbro [Meister Rumelant]"
ISRC DEG730231167
INDEX 01 00:00:00
TRACK 02 AUDIO
TITLE "Estampie - Got herre almechtich"
PERFORMER "Christensen, Andersén, Hexbro [Meister Rumelant]"
ISRC DEG730231168
INDEX 01 06:13:45
TRACK 03 AUDIO
TITLE "Got herre almechtich"
PERFORMER "Christensen, Andersén, Hexbro [Meister Rumelant]"
ISRC DEG730231169
INDEX 00 08:16:32
INDEX 01 08:18:32
TRACK 04 AUDIO
TITLE "Alle kvninge, vursten, herren, ritter..."
PERFORMER "Christensen, Andersén, Hexbro [Meister Rumelant]"
ISRC DEG730231170
INDEX 00 12:23:51
INDEX 01 12:25:51
TRACK 05 AUDIO
TITLE "Got in vier elementen sich erscheynet"
PERFORMER "Christensen, Andersén, Hexbro [Meister Rumelant]"
ISRC DEG730231171
INDEX 01 17:07:65
TRACK 06 AUDIO
TITLE "Daz Gedeones wollenvlivs"
PERFORMER "Christensen, Andersén, Hexbro [Meister Rumelant]"
ISRC DEG730231172
INDEX 00 19:02:16
INDEX 01 19:04:16
TRACK 07 AUDIO
TITLE "Der sich so ho gesetzet hat"
PERFORMER "Christensen, Andersén, Hexbro [Meister Rumelant]"
ISRC DEG730231173
INDEX 00 22:39:40
INDEX 01 22:41:40
TRACK 08 AUDIO
TITLE "Got in vil hohen vreuden saz"
PERFORMER "Christensen, Andersén, Hexbro [Meister Rumelant]"
ISRC DEG730231174
INDEX 00 28:48:50
INDEX 01 28:50:50
TRACK 09 AUDIO
TITLE "Got in vier elementen sich erscheynet"
PERFORMER "Christensen, Andersén, Hexbro [Meister Rumelant]"
ISRC DEG730231175
INDEX 00 36:14:69
INDEX 01 36:16:69
TRACK 10 AUDIO
TITLE "Estampie - Der vissen heyden Cato"
PERFORMER "Christensen, Andersén, Hexbro [Meister Rumelant]"
ISRC DEG730231176
INDEX 00 45:25:59
INDEX 01 45:27:59
TRACK 11 AUDIO
TITLE "Der kvninc Nabugodonosor"
PERFORMER "Christensen, Andersén, Hexbro [Meister Rumelant]"
ISRC DEG730231177
INDEX 01 48:01:00



Показать сообщения:    

Текущее время: 05-Дек 17:37

Часовой пояс: UTC + 3


Вы не можете начинать темы
Вы не можете отвечать на сообщения
Вы не можете редактировать свои сообщения
Вы не можете удалять свои сообщения
Вы не можете голосовать в опросах
Вы не можете прикреплять файлы к сообщениям
Вы не можете скачивать файлы