(Baroque Oratorio) Handel - Jephtha (Ainsley, George, Kohler, Oelze - Rias Kammerchor / Akademie fur Alte Musik Berlin, Creed) - 2003, APE (image+.cue) lossless


Статистика раздачи [Обновить пиров]
Размер:  676 MB   |    Зарегистрирован:  8 месяцев 21 день   |    Скачан:  0 раз

Полного источника не было: Никогда

 
   
 
 
 

[Цитировать]

George Frideric Handel - Jephtha
Жанр: Baroque Oratorio
Страна-производитель диска: EU
Год издания диска: 2003
Издатель (лейбл): Brilliant Classics
Номер по каталогу: 99777-1/3
Дата записи: 1994
Аудиокодек: APE
Тип рипа: image+.cue
Битрейт аудио: lossless
Продолжительность: 61'54+56'25+41'48
Источник: собственный рип
Наличие сканов в содержимом раздачи: да
Треклист:

CD1

1. ACT 1 - Ouverture
2. Menuet
3. It must be so
4. Pour forth no more
5. No more to Ammon's god and king
6. But Jephtha comes
7. Virtue my soul shall still embrace
8. Twill be a painful separation
9. In gentle murmurs will I mourn
10. Happy this embassy
11. Dull delay, in piercing anguish
12. Ill suits the voice of love
13. Take the heart you fondly gave
14. I go, my soul
15. These labours past, how happy we
16. What mean these doubtful fancie
17. If, Lord, sustained
18. O God, behold our sore distress
19. Some dire event
20. Scenes of horror, scenes of woe
21. Say, my dear mother
22. The smiling dawn of happy days
23. Such, Jephtha, was the haughty king's reply
24. When his loud voice in thunder spoke

CD2

1. ACT 2 - Glad tidings of great joy
2. Cherub and Seraphim, unbodied forms
3. Up the dreadful steep ascending
4. 'Tis well. Haste, haste, ye maidens
5. Tune the soft melodious lute
6. Heav'n smiles once more
7. His mighty arm
8. In glory high
9. Symphony
10. Hail, glorious conqueror!
11. Welcome, as the cheerful light
12. Horror! Confusion!
13. Open thy marble jaws, O tomb
14. Why is my brother thus afflicted?
15. First perish thou - Let other creature
16. If such thy cruel purpose
17. On me let blind mistaken zeal
18. O spare your daughter!
19. Such news flies swift
20. For joys so vast
21. Happy they!
22. Deeper and deeper still
23. How dark, O Lord, are thy decrees!

CD3

1. ACT 3 - Hide thou thy hated beams
2. A father, off'ring up
3. Waft her, angels
4. Ye sacred priests
5. Farewell, ye limpid springs
6. Doubtful fear and reverend awe
7. Symphony
8. Rise, Jephtha
9. Happy, Iphis, shalt thou live
10. For ever blessed be
11. Theme sublime
12. Let me congratulate
13. Laud her, all ye virgin train
14. O let me fold thee
15. Sweet as sight to the blind
16. With transport, Iphis
17. My faithful Hamor
18. All that is in Hamor mine
19. Ye house of Gilead
Исполнители:
George Frideric Handel - Jephtha
Oratorio in three acts HWV 790
Libretto: Thomas Morrell
Jephtha - John Mark Ainsley (tenor)
Zebul - Michael George (bass)
Storge - Catherine Denley (mezzo-soprano)
Iphis - Christiane Oelze (soprano)
Hamor - Axel Köhler (counter-tenor)
Angel - Julia Gooding
RIAS Kammerchor
Akademie für Alte Musik Berlin
Marcus Creed
Recorded 1994

Лог создания рипа

CD1

Exact Audio Copy V1.0 beta 6 from 9. April 2015
EAC extraction logfile from 15. September 2015, 21:53
Ainsley, George, Köhler, Oelze - Rias Kammerchor_Akademie für Alte Musik Berlin / Handel - Jephtha, Creed CD1
Used drive : TSSTcorpCDDVDW SE-208AB Adapter: 1 ID: 2
Read mode : Secure
Utilize accurate stream : Yes
Defeat audio cache : Yes
Make use of C2 pointers : No
Read offset correction : 6
Overread into Lead-In and Lead-Out : No
Fill up missing offset samples with silence : Yes
Delete leading and trailing silent blocks : No
Null samples used in CRC calculations : Yes
Used interface : Native Win32 interface for Win NT & 2000
Used output format : Monkey's Audio Lossless Encoder
Selected bitrate : High Lossless Compression
Quality : High
Add ID3 tag : Yes
Command line compressor : C:\Program Files (x86)\Exact Audio Copy\MAC\MAC.exe
TOC of the extracted CD
Track | Start | Length | Start sector | End sector
---------------------------------------------------------
1 | 0:00.00 | 5:29.65 | 0 | 24739
2 | 5:29.65 | 1:37.65 | 24740 | 32079
3 | 7:07.55 | 1:30.02 | 32080 | 38831
4 | 8:37.57 | 4:58.03 | 38832 | 61184
5 | 13:35.60 | 2:38.37 | 61185 | 73071
6 | 16:14.22 | 1:05.10 | 73072 | 77956
7 | 17:19.32 | 4:06.58 | 77957 | 96464
8 | 21:26.15 | 0:29.40 | 96465 | 98679
9 | 21:55.55 | 5:09.52 | 98680 | 121906
10 | 27:05.32 | 0:51.08 | 121907 | 125739
11 | 27:56.40 | 3:05.20 | 125740 | 139634
12 | 31:01.60 | 0:30.07 | 139635 | 141891
13 | 31:31.67 | 3:57.33 | 141892 | 159699
14 | 35:29.25 | 0:30.57 | 159700 | 162006
15 | 36:00.07 | 5:46.40 | 162007 | 187996
16 | 41:46.47 | 0:56.15 | 187997 | 192211
17 | 42:42.62 | 1:09.65 | 192212 | 197451
18 | 43:52.52 | 4:10.08 | 197452 | 216209
19 | 48:02.60 | 0:28.20 | 216210 | 218329
20 | 48:31.05 | 4:17.00 | 218330 | 237604
21 | 52:48.05 | 0:58.72 | 237605 | 242026
22 | 53:47.02 | 3:18.15 | 242027 | 256891
23 | 57:05.17 | 0:28.68 | 256892 | 259059
24 | 57:34.10 | 4:20.25 | 259060 | 278584
Range status and errors
Selected range
Filename D:\EAC\Handel - Jephtha, Creed CD1.wav
Peak level 98.0 %
Extraction speed 1.9 X
Range quality 99.9 %
Test CRC 582DECD7
Copy CRC 582DECD7
Copy OK
No errors occurred
AccurateRip summary
Track 1 accurately ripped (confidence 6) [B5AC4493] (AR v2)
Track 2 accurately ripped (confidence 6) [376E1229] (AR v2)
Track 3 accurately ripped (confidence 6) [86103E35] (AR v2)
Track 4 accurately ripped (confidence 6) [912E613B] (AR v2)
Track 5 accurately ripped (confidence 6) [865A6CD5] (AR v2)
Track 6 accurately ripped (confidence 6) [1A763AF7] (AR v2)
Track 7 accurately ripped (confidence 6) [B8AB961A] (AR v2)
Track 8 accurately ripped (confidence 6) [9392904A] (AR v2)
Track 9 accurately ripped (confidence 6) [C36768D3] (AR v2)
Track 10 accurately ripped (confidence 6) [764D963C] (AR v2)
Track 11 accurately ripped (confidence 6) [7C4008BC] (AR v2)
Track 12 accurately ripped (confidence 6) [8C6ACBDD] (AR v2)
Track 13 accurately ripped (confidence 6) [30C837FF] (AR v2)
Track 14 accurately ripped (confidence 6) [D041243E] (AR v2)
Track 15 accurately ripped (confidence 6) [8D867486] (AR v2)
Track 16 accurately ripped (confidence 6) [A93CE706] (AR v2)
Track 17 accurately ripped (confidence 6) [C55136F2] (AR v2)
Track 18 accurately ripped (confidence 6) [3CBE618B] (AR v2)
Track 19 accurately ripped (confidence 6) [B10F6274] (AR v2)
Track 20 accurately ripped (confidence 6) [58998017] (AR v2)
Track 21 accurately ripped (confidence 6) [9B7F38AB] (AR v2)
Track 22 accurately ripped (confidence 5) [342DBBD5] (AR v2)
Track 23 accurately ripped (confidence 6) [D93561FA] (AR v2)
Track 24 accurately ripped (confidence 6) [E93C5094] (AR v2)
All tracks accurately ripped
End of status report
---- CUETools DB Plugin V2.1.6
[CTDB TOCID: 1_qO0ud_QAfa08jVEraZ9zqOPi0-] found
Submit result: 1_qO0ud_QAfa08jVEraZ9zqOPi0- has been confirmed
Track | CTDB Status
1 | (17/17) Accurately ripped
2 | (17/17) Accurately ripped
3 | (17/17) Accurately ripped
4 | (17/17) Accurately ripped
5 | (17/17) Accurately ripped
6 | (17/17) Accurately ripped
7 | (17/17) Accurately ripped
8 | (17/17) Accurately ripped
9 | (17/17) Accurately ripped
10 | (17/17) Accurately ripped
11 | (17/17) Accurately ripped
12 | (17/17) Accurately ripped
13 | (17/17) Accurately ripped
14 | (17/17) Accurately ripped
15 | (17/17) Accurately ripped
16 | (17/17) Accurately ripped
17 | (17/17) Accurately ripped
18 | (17/17) Accurately ripped
19 | (17/17) Accurately ripped
20 | (17/17) Accurately ripped
21 | (17/17) Accurately ripped
22 | (17/17) Accurately ripped
23 | (17/17) Accurately ripped
24 | (17/17) Accurately ripped
==== Log checksum FFBB4103B1FFBADF8E2DCF26C988792837B3CA9EB4CD95E1F667B140D794D5B5 ====

CD2

Exact Audio Copy V1.0 beta 6 from 9. April 2015
EAC extraction logfile from 15. September 2015, 20:59
Ainsley, George, Köhler, Oelze - Rias Kammerchor_Akademie für Alte Musik Berlin / Handel - Jephtha, Creed CD2
Used drive : TS8XDVDSTRANSCEND Adapter: 1 ID: 1
Read mode : Secure
Utilize accurate stream : Yes
Defeat audio cache : Yes
Make use of C2 pointers : No
Read offset correction : 6
Overread into Lead-In and Lead-Out : No
Fill up missing offset samples with silence : Yes
Delete leading and trailing silent blocks : No
Null samples used in CRC calculations : Yes
Used interface : Native Win32 interface for Win NT & 2000
Used output format : Monkey's Audio Lossless Encoder
Selected bitrate : High Lossless Compression
Quality : High
Add ID3 tag : Yes
Command line compressor : C:\Program Files (x86)\Exact Audio Copy\MAC\MAC.exe
TOC of the extracted CD
Track | Start | Length | Start sector | End sector
---------------------------------------------------------
1 | 0:00.00 | 1:19.15 | 0 | 5939
2 | 1:19.15 | 3:06.67 | 5940 | 19956
3 | 4:26.07 | 4:32.58 | 19957 | 40414
4 | 8:58.65 | 0:22.42 | 40415 | 42106
5 | 9:21.32 | 4:19.25 | 42107 | 61556
6 | 13:40.57 | 0:33.00 | 61557 | 64031
7 | 14:13.57 | 5:25.50 | 64032 | 88456
8 | 19:39.32 | 2:23.48 | 88457 | 99229
9 | 22:03.05 | 1:12.62 | 99230 | 104691
10 | 23:15.67 | 0:23.40 | 104692 | 106456
11 | 23:39.32 | 3:56.43 | 106457 | 124199
12 | 27:36.00 | 0:25.72 | 124200 | 126146
13 | 28:01.72 | 4:32.35 | 126147 | 146581
14 | 32:34.32 | 1:06.10 | 146582 | 151541
15 | 33:40.42 | 2:13.63 | 151542 | 161579
16 | 35:54.30 | 0:23.02 | 161580 | 163306
17 | 36:17.32 | 1:35.55 | 163307 | 170486
18 | 37:53.12 | 2:47.28 | 170487 | 183039
19 | 40:40.40 | 0:29.57 | 183040 | 185271
20 | 41:10.22 | 0:49.25 | 185272 | 188971
21 | 41:59.47 | 3:40.15 | 188972 | 205486
22 | 45:39.62 | 3:37.03 | 205487 | 221764
23 | 49:16.65 | 7:08.72 | 221765 | 253936
Range status and errors
Selected range
Filename D:\EAC\Handel - Jephtha, Creed CD2.wav
Peak level 98.0 %
Extraction speed 4.3 X
Range quality 100.0 %
Test CRC 5D43FC1B
Copy CRC 5D43FC1B
Copy OK
No errors occurred
AccurateRip summary
Track 1 accurately ripped (confidence 7) [E8F3BD78] (AR v2)
Track 2 accurately ripped (confidence 7) [BFCD5CDB] (AR v2)
Track 3 accurately ripped (confidence 7) [4861EB4D] (AR v2)
Track 4 accurately ripped (confidence 7) [CEAF30D0] (AR v2)
Track 5 accurately ripped (confidence 7) [D0E4FE92] (AR v2)
Track 6 accurately ripped (confidence 7) [689E95FB] (AR v2)
Track 7 accurately ripped (confidence 7) [8F611823] (AR v2)
Track 8 accurately ripped (confidence 7) [252D5BED] (AR v2)
Track 9 accurately ripped (confidence 7) [BB9C8093] (AR v2)
Track 10 accurately ripped (confidence 7) [5D776979] (AR v2)
Track 11 accurately ripped (confidence 7) [8B14BB82] (AR v2)
Track 12 accurately ripped (confidence 7) [C070FBF9] (AR v2)
Track 13 accurately ripped (confidence 7) [A2A696F5] (AR v2)
Track 14 accurately ripped (confidence 7) [790ABB7E] (AR v2)
Track 15 accurately ripped (confidence 7) [DD54C318] (AR v2)
Track 16 accurately ripped (confidence 7) [B4F28270] (AR v2)
Track 17 accurately ripped (confidence 7) [4701EFE8] (AR v2)
Track 18 accurately ripped (confidence 7) [DA30B0A3] (AR v2)
Track 19 accurately ripped (confidence 7) [912E33B6] (AR v2)
Track 20 accurately ripped (confidence 7) [7F7FEA58] (AR v2)
Track 21 accurately ripped (confidence 7) [AE4195FD] (AR v2)
Track 22 accurately ripped (confidence 7) [8F44BA94] (AR v2)
Track 23 accurately ripped (confidence 7) [263516D7] (AR v2)
All tracks accurately ripped
End of status report
---- CUETools DB Plugin V2.1.6
[CTDB TOCID: 8RLLDyhb26Ri5ahS1QeDAj0FsoE-] found
Submit result: unrecognized or virtual drive
Track | CTDB Status
1 | (17/17) Accurately ripped
2 | (17/17) Accurately ripped
3 | (17/17) Accurately ripped
4 | (17/17) Accurately ripped
5 | (17/17) Accurately ripped
6 | (17/17) Accurately ripped
7 | (17/17) Accurately ripped
8 | (17/17) Accurately ripped
9 | (17/17) Accurately ripped
10 | (17/17) Accurately ripped
11 | (17/17) Accurately ripped
12 | (17/17) Accurately ripped
13 | (17/17) Accurately ripped
14 | (17/17) Accurately ripped
15 | (17/17) Accurately ripped
16 | (17/17) Accurately ripped
17 | (17/17) Accurately ripped
18 | (17/17) Accurately ripped
19 | (17/17) Accurately ripped
20 | (17/17) Accurately ripped
21 | (17/17) Accurately ripped
22 | (17/17) Accurately ripped
23 | (17/17) Accurately ripped
==== Log checksum B276E4978CFA98144292ABA5E4C0198A89363E02979BB082920CEAEC484F98C7 ====

CD3

Exact Audio Copy V1.0 beta 6 from 9. April 2015
EAC extraction logfile from 15. September 2015, 21:25
Ainsley, George, Köhler, Oelze - Rias Kammerchor_Akademie für Alte Musik Berlin / Handel - Jephtha, Creed CD3
Used drive : TS8XDVDSTRANSCEND Adapter: 1 ID: 1
Read mode : Secure
Utilize accurate stream : Yes
Defeat audio cache : Yes
Make use of C2 pointers : No
Read offset correction : 6
Overread into Lead-In and Lead-Out : No
Fill up missing offset samples with silence : Yes
Delete leading and trailing silent blocks : No
Null samples used in CRC calculations : Yes
Used interface : Native Win32 interface for Win NT & 2000
Used output format : Monkey's Audio Lossless Encoder
Selected bitrate : High Lossless Compression
Quality : High
Add ID3 tag : Yes
Command line compressor : C:\Program Files (x86)\Exact Audio Copy\MAC\MAC.exe
TOC of the extracted CD
Track | Start | Length | Start sector | End sector
---------------------------------------------------------
1 | 0:00.00 | 2:39.60 | 0 | 11984
2 | 2:39.60 | 0:26.12 | 11985 | 13946
3 | 3:05.72 | 4:05.63 | 13947 | 32384
4 | 7:11.60 | 0:35.20 | 32385 | 35029
5 | 7:47.05 | 5:02.20 | 35030 | 57699
6 | 12:49.25 | 3:42.55 | 57700 | 74404
7 | 16:32.05 | 1:53.52 | 74405 | 82931
8 | 18:25.57 | 1:10.33 | 82932 | 88214
9 | 19:36.15 | 4:41.57 | 88215 | 109346
10 | 24:17.72 | 1:30.43 | 109347 | 116139
11 | 25:48.40 | 3:25.20 | 116140 | 131534
12 | 29:13.60 | 0:29.55 | 131535 | 133764
13 | 29:43.40 | 2:15.70 | 133765 | 143959
14 | 31:59.35 | 0:19.42 | 143960 | 145426
15 | 32:19.02 | 1:55.70 | 145427 | 154121
16 | 34:14.72 | 0:20.65 | 154122 | 155686
17 | 34:35.62 | 0:14.40 | 155687 | 156776
18 | 34:50.27 | 3:36.30 | 156777 | 173006
19 | 38:26.57 | 3:21.18 | 173007 | 188099
Range status and errors
Selected range
Filename D:\EAC\Handel - Jephtha, Creed CD3.wav
Peak level 98.0 %
Extraction speed 4.0 X
Range quality 100.0 %
Test CRC 18651B1B
Copy CRC 18651B1B
Copy OK
No errors occurred
AccurateRip summary
Track 1 accurately ripped (confidence 7) [77364773] (AR v2)
Track 2 accurately ripped (confidence 7) [E30F9284] (AR v2)
Track 3 accurately ripped (confidence 7) [4C6C9ADB] (AR v2)
Track 4 accurately ripped (confidence 7) [6AE9D4CE] (AR v2)
Track 5 accurately ripped (confidence 7) [B6909081] (AR v2)
Track 6 accurately ripped (confidence 7) [691C771E] (AR v2)
Track 7 accurately ripped (confidence 7) [5AB86E73] (AR v2)
Track 8 accurately ripped (confidence 7) [28841CBF] (AR v2)
Track 9 accurately ripped (confidence 7) [0FD7497E] (AR v2)
Track 10 accurately ripped (confidence 7) [31FAD9D2] (AR v2)
Track 11 accurately ripped (confidence 7) [C6F0A784] (AR v2)
Track 12 accurately ripped (confidence 7) [6A255140] (AR v2)
Track 13 accurately ripped (confidence 7) [0ECE2BD8] (AR v2)
Track 14 accurately ripped (confidence 7) [C7B54DC6] (AR v2)
Track 15 accurately ripped (confidence 7) [70263F10] (AR v2)
Track 16 accurately ripped (confidence 7) [58CD7545] (AR v2)
Track 17 accurately ripped (confidence 7) [9B4BE77E] (AR v2)
Track 18 accurately ripped (confidence 7) [9C6C3215] (AR v2)
Track 19 accurately ripped (confidence 7) [F8E8F82D] (AR v2)
All tracks accurately ripped
End of status report
---- CUETools DB Plugin V2.1.6
[CTDB TOCID: PzZWdB.mCNeo8hb0cR0aM.LXeKE-] found
Submit result: unrecognized or virtual drive
Track | CTDB Status
1 | (16/16) Accurately ripped
2 | (16/16) Accurately ripped
3 | (16/16) Accurately ripped
4 | (16/16) Accurately ripped
5 | (16/16) Accurately ripped
6 | (16/16) Accurately ripped
7 | (16/16) Accurately ripped
8 | (16/16) Accurately ripped
9 | (16/16) Accurately ripped
10 | (16/16) Accurately ripped
11 | (16/16) Accurately ripped
12 | (16/16) Accurately ripped
13 | (16/16) Accurately ripped
14 | (16/16) Accurately ripped
15 | (16/16) Accurately ripped
16 | (16/16) Accurately ripped
17 | (16/16) Accurately ripped
18 | (16/16) Accurately ripped
19 | (16/16) Accurately ripped
==== Log checksum 8E24315DEB6AABF2FF5ED3A3D097A23A2F197F87A1EC1A46A14AA73BB690C939 ====

Содержание индексной карты (.CUE)

CD1

REM GENRE Oratorio
REM DATE 1994
REM DISCID 630E8218
REM COMMENT "ExactAudioCopy v1.0b6"
PERFORMER "Ainsley, George, Köhler, Oelze - Rias Kammerchor_Akademie für Alte Musik Berlin"
TITLE "Handel - Jephtha, Creed CD1"
FILE "Handel - Jephtha, Creed CD1.ape" WAVE
TRACK 01 AUDIO
TITLE "Ouverture"
PERFORMER "Ainsley, George, Köhler, Oelze - Rias Kammerchor_Akademie für Alte Musik Berlin"
INDEX 01 00:00:00
TRACK 02 AUDIO
TITLE "Menuet"
PERFORMER "Ainsley, George, Köhler, Oelze - Rias Kammerchor_Akademie für Alte Musik Berlin"
INDEX 01 05:29:65
TRACK 03 AUDIO
TITLE "It must be so"
PERFORMER "Ainsley, George, Köhler, Oelze - Rias Kammerchor_Akademie für Alte Musik Berlin"
INDEX 00 07:06:30
INDEX 01 07:07:55
TRACK 04 AUDIO
TITLE "Pour forth no more"
PERFORMER "Ainsley, George, Köhler, Oelze - Rias Kammerchor_Akademie für Alte Musik Berlin"
INDEX 01 08:37:57
TRACK 05 AUDIO
TITLE "No more to Ammon's god and king"
PERFORMER "Ainsley, George, Köhler, Oelze - Rias Kammerchor_Akademie für Alte Musik Berlin"
INDEX 01 13:35:60
INDEX 02 14:59:20
TRACK 06 AUDIO
TITLE "But Jephtha comes"
PERFORMER "Ainsley, George, Köhler, Oelze - Rias Kammerchor_Akademie für Alte Musik Berlin"
INDEX 01 16:14:22
TRACK 07 AUDIO
TITLE "Virtue my soul shall still embrace"
PERFORMER "Ainsley, George, Köhler, Oelze - Rias Kammerchor_Akademie für Alte Musik Berlin"
INDEX 01 17:19:32
TRACK 08 AUDIO
TITLE "Twill be a painful separation"
PERFORMER "Ainsley, George, Köhler, Oelze - Rias Kammerchor_Akademie für Alte Musik Berlin"
INDEX 01 21:26:15
TRACK 09 AUDIO
TITLE "In gentle murmurs will I mourn"
PERFORMER "Ainsley, George, Köhler, Oelze - Rias Kammerchor_Akademie für Alte Musik Berlin"
INDEX 01 21:55:55
TRACK 10 AUDIO
TITLE "Happy this embassy"
PERFORMER "Ainsley, George, Köhler, Oelze - Rias Kammerchor_Akademie für Alte Musik Berlin"
INDEX 01 27:05:32
TRACK 11 AUDIO
TITLE "Dull delay, in piercing anguish"
PERFORMER "Ainsley, George, Köhler, Oelze - Rias Kammerchor_Akademie für Alte Musik Berlin"
INDEX 01 27:56:40
TRACK 12 AUDIO
TITLE "Ill suits the voice of love"
PERFORMER "Ainsley, George, Köhler, Oelze - Rias Kammerchor_Akademie für Alte Musik Berlin"
INDEX 01 31:01:60
TRACK 13 AUDIO
TITLE "Take the heart you fondly gave"
PERFORMER "Ainsley, George, Köhler, Oelze - Rias Kammerchor_Akademie für Alte Musik Berlin"
INDEX 01 31:31:67
TRACK 14 AUDIO
TITLE "I go, my soul"
PERFORMER "Ainsley, George, Köhler, Oelze - Rias Kammerchor_Akademie für Alte Musik Berlin"
INDEX 01 35:29:25
TRACK 15 AUDIO
TITLE "These labours past, how happy we"
PERFORMER "Ainsley, George, Köhler, Oelze - Rias Kammerchor_Akademie für Alte Musik Berlin"
INDEX 01 36:00:07
TRACK 16 AUDIO
TITLE "What mean these doubtful fancies"
PERFORMER "Ainsley, George, Köhler, Oelze - Rias Kammerchor_Akademie für Alte Musik Berlin"
INDEX 01 41:46:47
TRACK 17 AUDIO
TITLE "If, Lord, sustained"
PERFORMER "Ainsley, George, Köhler, Oelze - Rias Kammerchor_Akademie für Alte Musik Berlin"
INDEX 01 42:42:62
INDEX 02 43:31:32
TRACK 18 AUDIO
TITLE "O God, behold our sore distress"
PERFORMER "Ainsley, George, Köhler, Oelze - Rias Kammerchor_Akademie für Alte Musik Berlin"
INDEX 01 43:52:52
TRACK 19 AUDIO
TITLE "Some dire event"
PERFORMER "Ainsley, George, Köhler, Oelze - Rias Kammerchor_Akademie für Alte Musik Berlin"
INDEX 01 48:02:60
TRACK 20 AUDIO
TITLE "Scenes of horror, scenes of woe"
PERFORMER "Ainsley, George, Köhler, Oelze - Rias Kammerchor_Akademie für Alte Musik Berlin"
INDEX 01 48:31:05
TRACK 21 AUDIO
TITLE "Say, my dear mother"
PERFORMER "Ainsley, George, Köhler, Oelze - Rias Kammerchor_Akademie für Alte Musik Berlin"
INDEX 01 52:48:05
TRACK 22 AUDIO
TITLE "The smiling dawn of happy days"
PERFORMER "Ainsley, George, Köhler, Oelze - Rias Kammerchor_Akademie für Alte Musik Berlin"
INDEX 01 53:47:02
TRACK 23 AUDIO
TITLE "Such, Jephtha, was the haughty king's reply"
PERFORMER "Ainsley, George, Köhler, Oelze - Rias Kammerchor_Akademie für Alte Musik Berlin"
INDEX 01 57:05:17
TRACK 24 AUDIO
TITLE "When his loud voice in thunder spoke"
PERFORMER "Ainsley, George, Köhler, Oelze - Rias Kammerchor_Akademie für Alte Musik Berlin"
INDEX 01 57:34:10
INDEX 02 59:36:35

CD2

REM GENRE Oratorio
REM DATE 1994
REM DISCID 400D3917
REM COMMENT "ExactAudioCopy v1.0b6"
PERFORMER "Ainsley, George, Köhler, Oelze - Rias Kammerchor_Akademie für Alte Musik Berlin"
TITLE "Handel - Jephtha, Creed CD2"
FILE "Handel - Jephtha, Creed CD2.ape" WAVE
TRACK 01 AUDIO
TITLE "ACT 2 - Recitative (Hamor) - Glad tidings of great joy"
PERFORMER "Ainsley, George, Köhler, Oelze - Rias Kammerchor_Akademie für Alte Musik Berlin"
INDEX 01 00:00:00
TRACK 02 AUDIO
TITLE "Chorus - Cherub and Seraphim, unbodied forms"
PERFORMER "Ainsley, George, Köhler, Oelze - Rias Kammerchor_Akademie für Alte Musik Berlin"
INDEX 01 01:19:15
INDEX 02 03:09:45
TRACK 03 AUDIO
TITLE "Air (Hamor) - Up the dreadful steep ascending"
PERFORMER "Ainsley, George, Köhler, Oelze - Rias Kammerchor_Akademie für Alte Musik Berlin"
INDEX 01 04:26:07
TRACK 04 AUDIO
TITLE "Recitative (Iphis) - 'Tis well. Haste, haste, ye maidens"
PERFORMER "Ainsley, George, Köhler, Oelze - Rias Kammerchor_Akademie für Alte Musik Berlin"
INDEX 01 08:58:65
TRACK 05 AUDIO
TITLE "Air (Iphis) - Tune the soft melodious lute"
PERFORMER "Ainsley, George, Köhler, Oelze - Rias Kammerchor_Akademie für Alte Musik Berlin"
INDEX 01 09:21:32
TRACK 06 AUDIO
TITLE "Recitative (Jephtha): Heav'n smiles once more"
PERFORMER "Ainsley, George, Köhler, Oelze - Rias Kammerchor_Akademie für Alte Musik Berlin"
INDEX 01 13:40:57
TRACK 07 AUDIO
TITLE "Air (Jephta) - His mighty arm"
PERFORMER "Ainsley, George, Köhler, Oelze - Rias Kammerchor_Akademie für Alte Musik Berlin"
INDEX 01 14:13:57
TRACK 08 AUDIO
TITLE "Chorus - In glory high"
PERFORMER "Ainsley, George, Köhler, Oelze - Rias Kammerchor_Akademie für Alte Musik Berlin"
INDEX 01 19:39:32
TRACK 09 AUDIO
TITLE "Symphony"
PERFORMER "Ainsley, George, Köhler, Oelze - Rias Kammerchor_Akademie für Alte Musik Berlin"
INDEX 01 22:03:05
TRACK 10 AUDIO
TITLE "Recitative (Iphis) - Hail, glorious conqueror!"
PERFORMER "Ainsley, George, Köhler, Oelze - Rias Kammerchor_Akademie für Alte Musik Berlin"
INDEX 01 23:15:67
TRACK 11 AUDIO
TITLE "Air (Iphis) and Chorus - Welcome, as the cheerful light"
PERFORMER "Ainsley, George, Köhler, Oelze - Rias Kammerchor_Akademie für Alte Musik Berlin"
INDEX 01 23:39:32
INDEX 02 25:27:00
TRACK 12 AUDIO
TITLE "Recitative (Jephta) - Horror! Confusion!"
PERFORMER "Ainsley, George, Köhler, Oelze - Rias Kammerchor_Akademie für Alte Musik Berlin"
INDEX 01 27:36:00
TRACK 13 AUDIO
TITLE "Air (Jephta) - Open thy marble jaws, O tomb"
PERFORMER "Ainsley, George, Köhler, Oelze - Rias Kammerchor_Akademie für Alte Musik Berlin"
INDEX 01 28:01:72
TRACK 14 AUDIO
TITLE "Recitative (Zebul, Jephta) - Why is my brother thus afflicted?"
PERFORMER "Ainsley, George, Köhler, Oelze - Rias Kammerchor_Akademie für Alte Musik Berlin"
INDEX 01 32:34:32
TRACK 15 AUDIO
TITLE "Accompagnato and Arioso (Storgè) - First perish thou - Let other creatures"
PERFORMER "Ainsley, George, Köhler, Oelze - Rias Kammerchor_Akademie für Alte Musik Berlin"
INDEX 01 33:40:42
INDEX 02 34:08:62
TRACK 16 AUDIO
TITLE "Recitative (Hamor) - If such thy cruel purpose"
PERFORMER "Ainsley, George, Köhler, Oelze - Rias Kammerchor_Akademie für Alte Musik Berlin"
INDEX 01 35:54:30
TRACK 17 AUDIO
TITLE "Air (Hamor) - On me let blind mistaken zeal"
PERFORMER "Ainsley, George, Köhler, Oelze - Rias Kammerchor_Akademie für Alte Musik Berlin"
INDEX 01 36:17:32
TRACK 18 AUDIO
TITLE "Quartet (Storgè, Hamor, Jephta, Zebul) - O spare your daughter!"
PERFORMER "Ainsley, George, Köhler, Oelze - Rias Kammerchor_Akademie für Alte Musik Berlin"
INDEX 01 37:53:12
TRACK 19 AUDIO
TITLE "Recitative (Iphis) - Such news flies swift"
PERFORMER "Ainsley, George, Köhler, Oelze - Rias Kammerchor_Akademie für Alte Musik Berlin"
INDEX 01 40:40:40
TRACK 20 AUDIO
TITLE "Accompagnato (Iphis) - For joys so vast"
PERFORMER "Ainsley, George, Köhler, Oelze - Rias Kammerchor_Akademie für Alte Musik Berlin"
INDEX 01 41:10:22
TRACK 21 AUDIO
TITLE "Air (Iphis) - Happy they!"
PERFORMER "Ainsley, George, Köhler, Oelze - Rias Kammerchor_Akademie für Alte Musik Berlin"
INDEX 01 41:59:47
TRACK 22 AUDIO
TITLE "Accompagnato (Jephta) - Deeper and deeper still"
PERFORMER "Ainsley, George, Köhler, Oelze - Rias Kammerchor_Akademie für Alte Musik Berlin"
INDEX 01 45:39:62
TRACK 23 AUDIO
TITLE "Chorus - How dark, O Lord, are thy decrees!"
PERFORMER "Ainsley, George, Köhler, Oelze - Rias Kammerchor_Akademie für Alte Musik Berlin"
INDEX 01 49:16:65

CD3

REM GENRE Oratorio
REM DATE 1994
REM DISCID 0F09CC13
REM COMMENT "ExactAudioCopy v1.0b6"
PERFORMER "Ainsley, George, Köhler, Oelze - Rias Kammerchor_Akademie für Alte Musik Berlin"
TITLE "Handel - Jephtha, Creed CD3"
FILE "Handel - Jephtha, Creed CD3.ape" WAVE
TRACK 01 AUDIO
TITLE "01 AA Act 3: Hide thou thy hated beams"
PERFORMER "Ainsley, George, Köhler, Oelze - Rias Kammerchor_Akademie für Alte Musik Berlin"
INDEX 01 00:00:00
TRACK 02 AUDIO
TITLE "02 AB Act 3: A father, off'ring up"
PERFORMER "Ainsley, George, Köhler, Oelze - Rias Kammerchor_Akademie für Alte Musik Berlin"
INDEX 01 02:39:60
TRACK 03 AUDIO
TITLE "03 AC Act 3: Air - Waft her, angels"
PERFORMER "Ainsley, George, Köhler, Oelze - Rias Kammerchor_Akademie für Alte Musik Berlin"
INDEX 01 03:05:72
TRACK 04 AUDIO
TITLE "04 AD Act 3: Ye sacred priests"
PERFORMER "Ainsley, George, Köhler, Oelze - Rias Kammerchor_Akademie für Alte Musik Berlin"
INDEX 01 07:11:60
TRACK 05 AUDIO
TITLE "05 AE Act 3: Air - Farewell, ye limpid springs"
PERFORMER "Ainsley, George, Köhler, Oelze - Rias Kammerchor_Akademie für Alte Musik Berlin"
INDEX 01 07:47:05
INDEX 02 10:47:42
TRACK 06 AUDIO
TITLE "06 AF Act 3: Doubtful fear and reverend awe"
PERFORMER "Ainsley, George, Köhler, Oelze - Rias Kammerchor_Akademie für Alte Musik Berlin"
INDEX 01 12:49:25
TRACK 07 AUDIO
TITLE "07 AG Act 3: Symphony"
PERFORMER "Ainsley, George, Köhler, Oelze - Rias Kammerchor_Akademie für Alte Musik Berlin"
INDEX 00 16:31:00
INDEX 01 16:32:05
TRACK 08 AUDIO
TITLE "08 AH Act 3: Rise, Jephtha"
PERFORMER "Ainsley, George, Köhler, Oelze - Rias Kammerchor_Akademie für Alte Musik Berlin"
INDEX 01 18:25:57
TRACK 09 AUDIO
TITLE "09 AI Act 3: Air - Happy, Iphis, shalt thou live"
PERFORMER "Ainsley, George, Köhler, Oelze - Rias Kammerchor_Akademie für Alte Musik Berlin"
INDEX 01 19:36:15
TRACK 10 AUDIO
TITLE "10 AJ Act 3: For ever blessed be"
PERFORMER "Ainsley, George, Köhler, Oelze - Rias Kammerchor_Akademie für Alte Musik Berlin"
INDEX 01 24:17:72
TRACK 11 AUDIO
TITLE "11 AK Act 3: Theme sublime"
PERFORMER "Ainsley, George, Köhler, Oelze - Rias Kammerchor_Akademie für Alte Musik Berlin"
INDEX 01 25:48:40
TRACK 12 AUDIO
TITLE "12 AL Act 3: Let me congratulate"
PERFORMER "Ainsley, George, Köhler, Oelze - Rias Kammerchor_Akademie für Alte Musik Berlin"
INDEX 01 29:13:60
TRACK 13 AUDIO
TITLE "13 AM Act 3: Air - Laud her, all ye virgin train"
PERFORMER "Ainsley, George, Köhler, Oelze - Rias Kammerchor_Akademie für Alte Musik Berlin"
INDEX 01 29:43:40
TRACK 14 AUDIO
TITLE "14 AN Act 3: O let me fold thee"
PERFORMER "Ainsley, George, Köhler, Oelze - Rias Kammerchor_Akademie für Alte Musik Berlin"
INDEX 01 31:59:35
TRACK 15 AUDIO
TITLE "15 AO Act 3: Air - Sweet as sight to the blind"
PERFORMER "Ainsley, George, Köhler, Oelze - Rias Kammerchor_Akademie für Alte Musik Berlin"
INDEX 01 32:19:02
TRACK 16 AUDIO
TITLE "16 AP Act 3: With transport, Iphis"
PERFORMER "Ainsley, George, Köhler, Oelze - Rias Kammerchor_Akademie für Alte Musik Berlin"
INDEX 01 34:14:72
TRACK 17 AUDIO
TITLE "17 AQ Act 3: My faithful Hamor"
PERFORMER "Ainsley, George, Köhler, Oelze - Rias Kammerchor_Akademie für Alte Musik Berlin"
INDEX 01 34:35:62
TRACK 18 AUDIO
TITLE "18 AR Act 3: All that is in Hamor mine"
PERFORMER "Ainsley, George, Köhler, Oelze - Rias Kammerchor_Akademie für Alte Musik Berlin"
INDEX 01 34:50:27
TRACK 19 AUDIO
TITLE "19 AS Act 3: Ye house of Gilead"
PERFORMER "Ainsley, George, Köhler, Oelze - Rias Kammerchor_Akademie für Alte Musik Berlin"
INDEX 01 38:26:57
INDEX 02 40:15:62
Доп. информация:
'Jephtha' was Handel's last major work. At one point he had to suspend work on it due to problems with his eyes, eventually losing the sight in one eye altogether. By the following year he was too blind to work properly and 'Jephtha' was followed only by the 'Triumph of Truth and Time', an adaptation by Handel and his amanuensis, Smith, of a work from Handel's Italian period.
The libretto to 'Jephtha' was written by the Rev. Thomas Morrell, who also wrote 'Theodora' for Handel. It is based on the story from Judges where Jephtha. commanding the Israeli army, vows to God that if he gets a victory he will offer the first living thing he meets as a sacrifice to God. After his victory, the first thing he meets is his daughter. Morrell developed a pretty serviceable libretto from this story. Creating the role of Storge, Jephtha's wife, so that she is the only person to have doubts about Jephtha's vow. Jephtha's daughter, Iphis, acquires a boyfriend and their devotion forms a counterpoint to Jephtha's vow, rendering it all the more poignant. The major change that Morrell made was to the ending. In the biblical version, Iphis is given a few months grace and then she is sacrificed. This was too much for the 18th century enlightenment, who preferred the New Testament God. So Iphis is spared at the last minute by an Angel, though she must spend the rest of her life in a convent. Much ink has been spilt, denigrating Morrell for this change. But, as his correspondence with Charles Jennens (librettist for 'Messiah', 'Belshazzar' and 'Saul') shows, Handel was perfectly capable directing a librettist. We must assume that Handel was reasonably content with the altered ending. Perhaps because the ending was not the key to his dramatic conception of 'Jephtha' and we must look at Handel’s private circumstances at the time of composition if we wish to understand how Handel viewed ‘Jephtha’.
The score was begun just before his 66th birthday - a considerable age in the 18th century and few composers were still actively working at this age (Bach had died the year before). With his sight failing he must have known that he had only a limited time left to put pen to paper. So not surprisingly, Handel does not develop 'Jephtha' in the way that might have been expected given Morrell's libretto. The crux of Handel's oratorio is submission to the inevitable. From the bold setting of the opening recitative 'It must be so' to the closing chorus of Act 2 with its words (altered by Handel from Morrell's original) 'Whatever is, is right'.
Despite its power, 'Jephtha' is still not common in the catalogues so these Berlin-based performances are more than welcome. The Akademie für Alte Musik Berlin under Marcus Creed, give a crisp stylish account of the overture which typifies their approach to the whole work. Speeds are, on the whole, quite brisk but some of the faster passages in the overture sound a little rushed.
Michael George, as Zebul, is fine Handelian singer and his Zebul is a noble performance.
Catherine Denly's Storge is capable and firm of voice. So it is all the more moving when she gives way to her fears in the great Act 1 aria and in Act 2 she is wonderfully virulent in her reaction to Jephtha's vow.
As Iphis, Christiane Oelze sings with strength and purity. Good women in oratorios can often seem a little flat and colourless but Oelze sings with such colour and vibrancy that suggest hidden depths and strengths in Iphis. She reacts with poise and strength to the news of Jephtha's vow.
The role of Hamar is a tricky role as he is there mainly to render Iphis's fate all the more poignant.
During Act 1, John Mark Ainsley as Jephtha is every inch the noble commander. His fluency in the passage work is enviable and his way of using the Handelian line to create character is lovely.
The RIAS Chamber Choir have a prominent role in the performance as Handel allots the chorus some important moments of comment on the proceedings. They sing with a clear, focused tone and in the bigger choruses, such as that which closes Act 1 in Act 2, they provide a gently intimate tone.
[teatrix.ru].t22332.torrent 
Торрент: Зарегистрирован [ 2016-03-20 12:37 ] · 4FE2F8302AE8D6208E4EF5C7FCA3560FD7E79EE1

Скачать .torrent

Скачать

15 KB

Статус: проверено
Скачан: 0 раз
Размер: 676 MB
terms.php



Быстрый ответ

Имя:

      
Для отправки сообщений необходимо включить JavaScript
Показать сообщения:    

Текущее время: 11-Дек 11:08

Часовой пояс: UTC + 3


Вы можете начинать темы
Вы можете отвечать на сообщения
Вы не можете редактировать свои сообщения
Вы не можете удалять свои сообщения
Вы не можете голосовать в опросах
Вы не можете прикреплять файлы к сообщениям
Вы можете скачивать файлы