(Classical / Piano Quintet) Antonin Dvorak - Klavirni kvintet c. 2 | Cesar Franck - Piano quintette en fa mineur (Clifford Curzon, Willi Boskovsky, Otto Strasser, Rudolf Streng, Robert Scheiwein, Emanuel Brabec) - 1988, FLAC (tracks+.cue) lossless


 

[Цитировать]

Antonín Dvořák (1841–1904)
Klavírní kvintet č. 2 A dur


César Franck (1822–1890)
Piano quintette en fa mineur


Clifford Curzon piano
Wiener Philharmonisches Streichquartett:
Willi Boskovsky violin IOtto Strasser violin IIRudolf Streng viola
Robert ScheiweinEmanuel Brabec cellos


Жанр: Classical / Piano Quintet
Дата и место записи: Sofiensaal, Wien, 1962/1960
Формат записи: ADD, Stereo
Год издания диска: 1988
Издатель (лейбл): Decca
Номер по каталогу: 421 153-2
Аудиокодек: FLAC
Тип рипа: tracks+.cue
Битрейт аудио: lossless
Продолжительность: 1:09:25
Наличие сканов в содержимом раздачи: да
Источник: LzTr
Релизёр: Poppy


Tracklist / Треклист
Antonín Dvořák
Klavírní kvintet č. 2 A dur, op. 81 (B155) - 35:42
I. Allegro ma non tanto - 10:14
  • II. Dumka: Andante con moto - 13:30
  • III. Scherzo (Furiant): Molto vivace - 4:17
  • IV. Finale: Allegro - 7:42
    Clifford Curzon, Willi Boskovsky, Otto Strasser, Rudolf Streng, Robert Scheiwein
    Recorded: Sofiensaal, Wien, October 1962

    César Franck
    Piano quintette en fa mineur, FWV 7 - 33:42
    I. Molto moderato quasi lento. — Allegro - 15:27
  • II. Lento, con molto sentimento - 10:04
  • III. Allegro non troppo, ma con fuoco - 8:11
    Clifford Curzon, Willi Boskovsky, Otto Strasser, Rudolf Streng, Emanuel Brabec
    Recorded: Sofiensaal, Wien, October 1960


    -

    XLD log / Отчёт XLD

    X Lossless Decoder version 20120609 (141.0)
    XLD extraction logfile from 2012-07-11 15:26:58 +1000
    Clfford Curzon, Vienna Philharmonic Quartet / Dvorak - Franck, Piano Quintets (1962) [FLAC]
    Used drive : MATSHITA DVD-R UJ-898 (revision HC10)
    Ripper mode : XLD Secure Ripper
    Disable audio cache : OK for the drive with a cache less than 1375KiB
    Make use of C2 pointers : NO
    Read offset correction : 102
    Max retry count : 100
    Gap status : Analyzed, Appended (except HTOA)
    TOC of the extracted CD
    Track | Start | Length | Start sector | End sector
    ---------------------------------------------------------
    1 | 00:00:32 | 10:14:00 | 32 | 46081
    2 | 10:14:32 | 13:29:63 | 46082 | 106819
    3 | 23:44:20 | 04:16:50 | 106820 | 126069
    4 | 28:00:70 | 07:41:50 | 126070 | 160694
    5 | 35:42:45 | 15:27:25 | 160695 | 230244
    6 | 51:09:70 | 10:04:25 | 230245 | 275569
    7 | 61:14:20 | 08:10:50 | 275570 | 312369
    AccurateRip Summary (DiscID: 0013319c-0072e567-59104407)
    Track 01 : OK (v1, confidence 8/8)
    Track 02 : OK (v1, confidence 7/7)
    Track 03 : OK (v1, confidence 8/8)
    Track 04 : OK (v1, confidence 8/8)
    Track 05 : OK (v1, confidence 8/8)
    Track 06 : OK (v1, confidence 8/8)
    Track 07 : OK (v1, confidence 8/8)
    ->All tracks accurately ripped.
    All Tracks
    Album gain : -0.59 dB
    Peak : 0.984009
    Statistics
    Read error : 0
    Jitter error (maybe fixed) : 0
    Retry sector count : 0
    Damaged sector count : 0
    Track 01
    Filename : /Volumes/HD/Dvorak - Franck, Piano Quintets (1962) [FLAC]/01 - Dvorak Piano Quintet in A major, Op81 - I Allegro ma non tanto.flac
    Pre-gap length : 00:02:32
    Track gain : -0.84 dB
    Peak : 0.825958
    CRC32 hash (test run) : D9F56667
    CRC32 hash : D9F56667
    CRC32 hash (skip zero) : 8BBAEED4
    AccurateRip v1 signature : 1F7037B4
    AccurateRip v2 signature : D644DCE4
    ->Accurately ripped (v1, confidence 8/8)
    Statistics
    Read error : 0
    Jitter error (maybe fixed) : 0
    Retry sector count : 0
    Damaged sector count : 0
    Track 02
    Filename : /Volumes/HD/Dvorak - Franck, Piano Quintets (1962) [FLAC]/02 - Dvorak Piano Quintet in A major, Op81 - II Dumka, andante con moto.flac
    Pre-gap length : 00:03:00
    Track gain : 6.34 dB
    Peak : 0.646423
    CRC32 hash (test run) : A5A7FA1D
    CRC32 hash : A5A7FA1D
    CRC32 hash (skip zero) : B8472892
    AccurateRip v1 signature : 2AFA3D12
    AccurateRip v2 signature : F9765207
    ->Accurately ripped (v1, confidence 7/7)
    Statistics
    Read error : 0
    Jitter error (maybe fixed) : 0
    Retry sector count : 0
    Damaged sector count : 0
    Track 03
    Filename : /Volumes/HD/Dvorak - Franck, Piano Quintets (1962) [FLAC]/03 - Dvorak Piano Quintet in A major, Op81 - III Schezo(Furiant), Molto vivace.flac
    Pre-gap length : 00:01:63
    Track gain : 0.54 dB
    Peak : 0.948303
    CRC32 hash (test run) : 2E137875
    CRC32 hash : 2E137875
    CRC32 hash (skip zero) : 7D383C6B
    AccurateRip v1 signature : EBDA7182
    AccurateRip v2 signature : DDAE4FA2
    ->Accurately ripped (v1, confidence 8/8)
    Statistics
    Read error : 0
    Jitter error (maybe fixed) : 0
    Retry sector count : 0
    Damaged sector count : 0
    Track 04
    Filename : /Volumes/HD/Dvorak - Franck, Piano Quintets (1962) [FLAC]/04 - Dvorak Piano Quintet in A major, Op81 - IV Finale, allegro.flac
    Pre-gap length : 00:02:63
    Track gain : 0.30 dB
    Peak : 0.826172
    CRC32 hash (test run) : 50FCB3FD
    CRC32 hash : 50FCB3FD
    CRC32 hash (skip zero) : 5EB923A4
    AccurateRip v1 signature : D6FAF422
    AccurateRip v2 signature : 0E712760
    ->Accurately ripped (v1, confidence 8/8)
    Statistics
    Read error : 0
    Jitter error (maybe fixed) : 0
    Retry sector count : 0
    Damaged sector count : 0
    Track 05
    Filename : /Volumes/HD/Dvorak - Franck, Piano Quintets (1962) [FLAC]/05 - Franck Piano Quintet in F minor - I Molto moderato quasi lento - Allegro.flac
    Pre-gap length : 00:08:50
    Track gain : -2.86 dB
    Peak : 0.984009
    CRC32 hash (test run) : 7701B46C
    CRC32 hash : 7701B46C
    CRC32 hash (skip zero) : 1C2E46B2
    AccurateRip v1 signature : 31611F73
    AccurateRip v2 signature : 89063AE4
    ->Accurately ripped (v1, confidence 8/8)
    Statistics
    Read error : 0
    Jitter error (maybe fixed) : 0
    Retry sector count : 0
    Damaged sector count : 0
    Track 06
    Filename : /Volumes/HD/Dvorak - Franck, Piano Quintets (1962) [FLAC]/06 - Franck Piano Quintet in F minor - II Lento con molto sentimento.flac
    Pre-gap length : 00:01:63
    Track gain : 3.56 dB
    Peak : 0.678894
    CRC32 hash (test run) : 3C67A954
    CRC32 hash : 3C67A954
    CRC32 hash (skip zero) : 40284BE2
    AccurateRip v1 signature : 01187035
    AccurateRip v2 signature : E595F866
    ->Accurately ripped (v1, confidence 8/8)
    Statistics
    Read error : 0
    Jitter error (maybe fixed) : 0
    Retry sector count : 0
    Damaged sector count : 0
    Track 07
    Filename : /Volumes/HD/Dvorak - Franck, Piano Quintets (1962) [FLAC]/07 - Franck Piano Quintet in F minor - III Allegro non troppo ma con fuoco.flac
    Pre-gap length : 00:03:25
    Track gain : -1.50 dB
    Peak : 0.962860
    CRC32 hash (test run) : 48601D99
    CRC32 hash : 48601D99
    CRC32 hash (skip zero) : 6FDDFB9A
    AccurateRip v1 signature : D140CE45
    AccurateRip v2 signature : 1F1C29C7
    ->Accurately ripped (v1, confidence 8/8)
    Statistics
    Read error : 0
    Jitter error (maybe fixed) : 0
    Retry sector count : 0
    Damaged sector count : 0
    No errors occurred
    End of status report

    auCDtect Task Manager log / Отчёт auCDtect Task Manager

    -----------------------
    DON'T MODIFY THIS FILE
    -----------------------
    PERFORMER: auCDtect Task Manager, ver. 1.5.1RC3 build 1.5.1.4
    Copyright (c) 2008-2010 y-soft. All rights reserved
    ANALYZER: auCDtect: CD records authenticity detector, version 0.8.2
    Copyright (c) 2004 Oleg Berngardt. All rights reserved.
    Copyright (c) 2004 Alexander Djourik. All rights reserved.
    FILE: 01 - Dvorak - Klavirni kvintet c. 2 A dur - I. Allegro ma non tanto.flac
    Size: 51157865 Hash: 5A1E94764A2B1F8DF4A514A166F208F9 Accuracy: -m0
    Conclusion: CDDA 100%
    Signature: 6E984CAF359F1EFFD065CFCCB4987E8652DCBABF
    FILE: 07 - Franck - Piano quintette en fa mineur - III. Allegro non troppo, ma con fuoco.flac
    Size: 40004591 Hash: 042B639D2AE68BABE18A41ADAFA4E923 Accuracy: -m0
    Conclusion: CDDA 99%
    Signature: 75614F4B428A8D682491BA116BAC40C61DE90260
    FILE: 06 - Franck - Piano quintette en fa mineur - II. Lento, con molto sentimento.flac
    Size: 43090500 Hash: 711169E27AE1F973512E676B08341EB6 Accuracy: -m0
    Conclusion: CDDA 100%
    Signature: F812F122A1BBBB54FF701068FD9B41C4FFBD78C9
    FILE: 05 - Franck - Piano quintette en fa mineur - I. Molto moderato quasi lento. - Allegro.flac
    Size: 73938943 Hash: 8ECF9A2D27134CF46069A01B82E1707A Accuracy: -m0
    Conclusion: CDDA 99%
    Signature: 508BA46F0914A21FDA25F0D9C46B4D8D43179D8C
    FILE: 04 - Dvorak - Klavirni kvintet c. 2 A dur - IV. Finale. Allegro.flac
    Size: 35775718 Hash: 35B5BC3A2A2DE5902913A0DE283AA9C4 Accuracy: -m0
    Conclusion: CDDA 100%
    Signature: F23B29289D37B5431FF69D84D7BF5D81E6D7E56E
    FILE: 03 - Dvorak - Klavirni kvintet c. 2 A dur - III. Scherzo (Furiant). Molto vivace.flac
    Size: 20501065 Hash: A24B7DADF63B0DEA8C1B5592E552B66E Accuracy: -m0
    Conclusion: CDDA 99%
    Signature: B96D24EF766229F3300604AD50E5B24203D53C3E
    FILE: 02 - Dvorak - Klavirni kvintet c. 2 A dur - II. Dumka. Andante con moto.flac
    Size: 61241314 Hash: 13E0D9619C5C7A557877698453EE2850 Accuracy: -m0
    Conclusion: CDDA 100%
    Signature: FA282A1665380F86FBFD5D8C0F32E7AF9205E7B5

    CUETools log / Отчёт CUETools

    [CUETools log; Date: 25.09.2015 21:13:57; Version: 2.1.4]
    Pregap length 00:00:32.
    [AccurateRip ID: 0013319c-0072e567-59104407] found.
    Track [ CRC | V2 ] Status
    01 [1f7037b4|d644dce4] (08+08/22) Accurately ripped
    02 [2afa3d12|f9765207] (07+08/21) Accurately ripped
    03 [ebda7182|ddae4fa2] (08+08/22) Accurately ripped
    04 [d6faf422|0e712760] (08+08/22) Accurately ripped
    05 [31611f73|89063ae4] (08+08/22) Accurately ripped
    06 [01187035|e595f866] (08+08/22) Accurately ripped
    07 [d140ce45|1f1c29c7] (08+08/22) Accurately ripped
    Offsetted by 771:
    01 [a9682c81] (00/22) No match (V2 was not tested)
    02 [3b3a633d] (00/21) No match (V2 was not tested)
    03 [60656854] (00/22) No match (V2 was not tested)
    04 [f37c5fe2] (00/22) No match (V2 was not tested)
    05 [ec0086b4] (00/22) No match (V2 was not tested)
    06 [cf654360] (00/22) No match (V2 was not tested)
    07 [e314ed24] (00/22) No match (V2 was not tested)
    Track Peak [ CRC32 ] [W/O NULL]
    -- 98,4 [666AF71D] [491E0E4B]
    01 82,5 [D9F56667] [8BBAEED4]
    02 64,6 [A5A7FA1D] [B8472892]
    03 94,8 [2E137875] [7D383C6B]
    04 82,6 [50FCB3FD] [5EB923A4]
    05 98,4 [7701B46C] [1C2E46B2]
    06 67,8 [3C67A954] [40284BE2]
    07 96,2 [48601D99] [6FDDFB9A]

    CUE sheet

    TITLE "Antonín Dvořák: Klavírní kvintet č. 2 | César Franck: Piano quintette en fa mineur"
    PERFORMER "Clifford Curzon, Wiener Philharmonisches Streichquartett"
    CATALOG 0028942115323
    REM GENRE Classical
    REM DISCID 59104407
    REM REPLAYGAIN_ALBUM_GAIN -0.59 dB
    REM REPLAYGAIN_ALBUM_PEAK 0.984009
    FILE "01 - Dvorak - Klavirni kvintet c. 2 A dur - I. Allegro ma non tanto.flac" WAVE
    TRACK 01 AUDIO
    TITLE "Klavírní kvintet č. 2 A dur, op. 81 (B155): I. Allegro ma non tanto"
    PERFORMER "Clifford Curzon, Willi Boskovsky, Otto Strasser, Rudolf Streng, Robert Scheiwein"
    REM DATE 1962
    REM REPLAYGAIN_TRACK_GAIN -0.84 dB
    REM REPLAYGAIN_TRACK_PEAK 0.825958
    PREGAP 00:00:32
    INDEX 01 00:00:00
    TRACK 02 AUDIO
    TITLE "Klavírní kvintet č. 2 A dur, op. 81 (B155): II. Dumka: Andante con moto"
    PERFORMER "Clifford Curzon, Willi Boskovsky, Otto Strasser, Rudolf Streng, Robert Scheiwein"
    REM DATE 1962
    REM REPLAYGAIN_TRACK_GAIN 6.34 dB
    REM REPLAYGAIN_TRACK_PEAK 0.646423
    INDEX 00 10:11:00
    FILE "02 - Dvorak - Klavirni kvintet c. 2 A dur - II. Dumka. Andante con moto.flac" WAVE
    INDEX 01 00:00:00
    TRACK 03 AUDIO
    TITLE "Klavírní kvintet č. 2 A dur, op. 81 (B155): III. Scherzo (Furiant): Molto vivace"
    PERFORMER "Clifford Curzon, Willi Boskovsky, Otto Strasser, Rudolf Streng, Robert Scheiwein"
    REM DATE 1962
    REM REPLAYGAIN_TRACK_GAIN 0.54 dB
    REM REPLAYGAIN_TRACK_PEAK 0.948303
    INDEX 00 13:28:00
    FILE "03 - Dvorak - Klavirni kvintet c. 2 A dur - III. Scherzo (Furiant). Molto vivace.flac" WAVE
    INDEX 01 00:00:00
    TRACK 04 AUDIO
    TITLE "Klavírní kvintet č. 2 A dur, op. 81 (B155): IV. Finale: Allegro"
    PERFORMER "Clifford Curzon, Willi Boskovsky, Otto Strasser, Rudolf Streng, Robert Scheiwein"
    REM DATE 1962
    REM REPLAYGAIN_TRACK_GAIN 0.30 dB
    REM REPLAYGAIN_TRACK_PEAK 0.826172
    INDEX 00 04:13:62
    FILE "04 - Dvorak - Klavirni kvintet c. 2 A dur - IV. Finale. Allegro.flac" WAVE
    INDEX 01 00:00:00
    TRACK 05 AUDIO
    TITLE "Piano quintette en fa mineur, FWV 7: I. Molto moderato quasi lento. — Allegro"
    PERFORMER "Clifford Curzon, Willi Boskovsky, Otto Strasser, Rudolf Streng, Emanuel Brabec"
    REM DATE 1960
    REM REPLAYGAIN_TRACK_GAIN -2.86 dB
    REM REPLAYGAIN_TRACK_PEAK 0.984009
    INDEX 00 07:33:00
    FILE "05 - Franck - Piano quintette en fa mineur - I. Molto moderato quasi lento. - Allegro.flac" WAVE
    INDEX 01 00:00:00
    TRACK 06 AUDIO
    TITLE "Piano quintette en fa mineur, FWV 7: II. Lento, con molto sentimento"
    PERFORMER "Clifford Curzon, Willi Boskovsky, Otto Strasser, Rudolf Streng, Emanuel Brabec"
    REM DATE 1960
    REM REPLAYGAIN_TRACK_GAIN 3.56 dB
    REM REPLAYGAIN_TRACK_PEAK 0.678894
    INDEX 00 15:25:37
    FILE "06 - Franck - Piano quintette en fa mineur - II. Lento, con molto sentimento.flac" WAVE
    INDEX 01 00:00:00
    TRACK 07 AUDIO
    TITLE "Piano quintette en fa mineur, FWV 7: III. Allegro non troppo, ma con fuoco"
    PERFORMER "Clifford Curzon, Willi Boskovsky, Otto Strasser, Rudolf Streng, Emanuel Brabec"
    REM DATE 1960
    REM REPLAYGAIN_TRACK_GAIN -1.50 dB
    REM REPLAYGAIN_TRACK_PEAK 0.962860
    INDEX 00 10:01:00
    FILE "07 - Franck - Piano quintette en fa mineur - III. Allegro non troppo, ma con fuoco.flac" WAVE
    INDEX 01 00:00:00
    -



  • Показать сообщения:    

    Текущее время: 06-Дек 19:03

    Часовой пояс: UTC + 3


    Вы не можете начинать темы
    Вы не можете отвечать на сообщения
    Вы не можете редактировать свои сообщения
    Вы не можете удалять свои сообщения
    Вы не можете голосовать в опросах
    Вы не можете прикреплять файлы к сообщениям
    Вы не можете скачивать файлы