Выживут только любовники / Only Lovers Left Alive (Джим Джармуш / Jim Jarmusch) [2013, Великобритания, Германия, Франция, фэнтези, триллер, драма, BDRip-AVC] DUB (R5) + AVO (Ю.Сербин) + Sub Rus, Eng, Fre + Original Eng


 

[Цитировать]

Выживут только любовникиOnly Lovers Left Alive
«Бессмертие надоедает...»
- Страна: Великобритания, Германия, Франция, Греция
Жанр: фэнтези, триллер, драма
Год выпуска: 2013
Продолжительность: 02:03:15
Перевод: Профессиональный (дублированный) R5
Перевод 2: Авторский (одноголосый закадровый) Ю.Сербин
Cубтитры: Rus, Eng, Fre
Оригинальная аудиодорожка: английский-РежиссерДжим Джармуш / Jim JarmuschВ ролях:
Тильда Суинтон | Tilda Swinton
Том Хиддлстон | Tom Hiddleston
Антон Ельчин | Anton Yelchin
Миа Васиковска | Mia Wasikowska
Джон Хёрт | John Hurt

Джеффри Райт, Слиман Дази, Картер Логан, Орели Тепо, Али Эмин-ОписаниеИстория древних вампиров Адама и Евы, которые видели ещё татаро-монгольское иго и инквизиции. Адам — рокер из Детройта, играющий андеграунд-музыку. Он уже очень старый, он хочет тишины, покоя, и тихо ненавидит «зомби» (так вампиры зовут людей). Ева же — напротив, весьма жизнерадостная вампирелла постарше, общающаяся с поэтом времён Шекспира, Кристофером Марло, и живущая в Танжере. Она приезжает вытаскивать своего любовника из пучины депрессии. Но идиллию нарушает внезапно заявляющаяся младшая сестра Евы — Ава. Исход ситуации предсказать не в силах никто — выживут только любовники?-Сэмпл

IMDb: 7.30 (45 862)
Каннский кинофестиваль, 2013 год
Номинации (1):
Золотая пальмовая ветвь

Качество видео: BDRip-AVC Blu-ray disc (custom)
Формат видео: MKV
Видео: AVC 4161 Kbps 1136 x 614 (1.850) 23.976 fps
Аудио: AC-3 448 Kbps 6 channels, 48.0 KHz DUB R5
Аудио 2: AC-3 448 Kbps 6 channels, 48.0 KHz Ю.Сербин
Аудио 3: AC-3 448 Kbps 6 channels, 48.0 KHz Eng
Формат субтитров: softsub (SRT)

MediaInfo | LogLog

x264 [info]: frame I:1078 Avg QP:13.40 size:109816
x264 [info]: frame P:32014 Avg QP:15.12 size: 51501
x264 [info]: frame B:144232 Avg QP:17.12 size: 15122
x264 [info]: consecutive B-frames: 0.9% 0.6% 2.5% 7.3% 10.0% 70.9% 4.4% 0.9% 0.5% 0.4% 0.4% 0.5% 0.6%
x264 [info]: mb I I16..4: 14.1% 68.1% 17.8%
x264 [info]: mb P I16..4: 1.3% 16.8% 1.2% P16..4: 24.2% 31.0% 16.8% 2.5% 0.2% skip: 6.0%
x264 [info]: mb B I16..4: 0.2% 1.5% 0.1% B16..8: 29.6% 19.7% 5.1% direct: 7.5% skip:36.2% L0:47.1% L1:41.1% BI:11.8%
x264 [info]: 8x8 transform intra:83.3% inter:51.7%
x264 [info]: direct mvs spatial:100.0% temporal:0.0%
x264 [info]: coded y,uvDC,uvAC intra: 87.0% 93.9% 90.4% inter: 27.9% 31.2% 15.3%
x264 [info]: i16 v,h,dc,p: 58% 13% 11% 18%
x264 [info]: i8 v,h,dc,ddl,ddr,vr,hd,vl,hu: 10% 7% 18% 9% 11% 11% 10% 11% 12%
x264 [info]: i4 v,h,dc,ddl,ddr,vr,hd,vl,hu: 19% 8% 19% 7% 10% 10% 9% 9% 10%
x264 [info]: i8c dc,h,v,p: 60% 15% 11% 13%
x264 [info]: Weighted P-Frames: Y:6.5% UV:4.5%
x264 [info]: ref P L0: 35.0% 6.3% 19.6% 8.4% 8.2% 5.2% 5.6% 2.9% 3.2% 2.4% 2.9% 0.2% 0.0%
x264 [info]: ref B L0: 70.4% 11.0% 5.5% 3.6% 2.7% 2.4% 1.8% 1.3% 0.8% 0.6%
x264 [info]: ref B L1: 95.4% 4.6%
x264 [info]: kb/s:4270.70
x264 [total]: encoded 177324 frames, 8.36 fps, 4270.70 kb/s, duration 5:53:23.74
Format : Matroska
Format version : Version 4 / Version 2
File size : 4.84 GiB
Duration : 2h 3mn
Overall bit rate : 5 617 Kbps
Encoded date : UTC 2015-09-25 21:22:07
Writing application : mkvmerge v6.7.0 ('Back to the Ground') 32bit built on Jan 8 2014 15:03:17
Writing library : libebml v1.3.0 + libmatroska v1.4.1
Video
ID : 1
Format : AVC
Format/Info : Advanced Video Codec
Format profile : High@L4.1
Format settings, CABAC : Yes
Format settings, ReFrames : 11 frames
Codec ID : V_MPEG4/ISO/AVC
Duration : 2h 3mn
Bit rate : 4 161 Kbps
Width : 1 136 pixels
Height : 614 pixels
Display aspect ratio : 1.85:1
Frame rate mode : Constant
Frame rate : 23.976 fps
Color space : YUV
Chroma subsampling : 4:2:0
Bit depth : 8 bits
Scan type : Progressive
Bits/(Pixel*Frame) : 0.249
Stream size : 3.58 GiB (74%)
Title : Only Lovers Left Alive (2013) [rutracker.org]
Writing library : x264 core 148 r2579kMod 73ae2d1
Encoding settings : cabac=1 / ref=11 / deblock=1:-2:-1 / analyse=0x3:0x133 / me=umh / subme=11 / psy=1 / fade_compensate=0.00 / psy_rd=1.00:0.05 / mixed_ref=1 / me_range=32 / chroma_me=1 / trellis=2 / 8x8dct=1 / cqm=0 / deadzone=21,11 / fast_pskip=0 / chroma_qp_offset=-3 / threads=12 / lookahead_threads=3 / sliced_threads=0 / nr=0 / decimate=1 / interlaced=0 / bluray_compat=0 / constrained_intra=0 / fgo=0 / bframes=12 / b_pyramid=2 / b_adapt=2 / b_bias=0 / direct=3 / weightb=1 / open_gop=0 / weightp=2 / keyint=250 / keyint_min=23 / scenecut=40 / intra_refresh=0 / rc_lookahead=80 / rc=crf / mbtree=0 / crf=17.7000 / qcomp=0.60 / qpmin=0 / qpmax=69 / qpstep=4 / vbv_maxrate=50000 / vbv_bufsize=62500 / crf_max=0.0 / nal_hrd=none / filler=0 / ip_ratio=1.40 / pb_ratio=1.30 / aq=3:0.90
Language : English
Default : Yes
Forced : No
Audio #1
ID : 2
Format : AC-3
Format/Info : Audio Coding 3
Mode extension : CM (complete main)
Format settings, Endianness : Big
Codec ID : A_AC3
Duration : 2h 3mn
Bit rate mode : Constant
Bit rate : 448 Kbps
Channel(s) : 6 channels
Channel positions : Front: L C R, Side: L R, LFE
Sampling rate : 48.0 KHz
Compression mode : Lossy
Stream size : 395 MiB (8%)
Title : DUB R5
Language : Russian
Default : Yes
Forced : No
Audio #2
ID : 3
Format : AC-3
Format/Info : Audio Coding 3
Mode extension : CM (complete main)
Format settings, Endianness : Big
Codec ID : A_AC3
Duration : 2h 3mn
Bit rate mode : Constant
Bit rate : 448 Kbps
Channel(s) : 6 channels
Channel positions : Front: L C R, Side: L R, LFE
Sampling rate : 48.0 KHz
Compression mode : Lossy
Stream size : 395 MiB (8%)
Title : AVO [U. Serbin]
Language : Russian
Default : No
Forced : No
Audio #3
ID : 4
Format : AC-3
Format/Info : Audio Coding 3
Mode extension : CM (complete main)
Format settings, Endianness : Big
Codec ID : A_AC3
Duration : 2h 3mn
Bit rate mode : Constant
Bit rate : 448 Kbps
Channel(s) : 6 channels
Channel positions : Front: L C R, Side: L R, LFE
Sampling rate : 48.0 KHz
Compression mode : Lossy
Stream size : 395 MiB (8%)
Title : Original
Language : English
Default : No
Forced : No
Text #1
ID : 5
Format : UTF-8
Codec ID : S_TEXT/UTF8
Codec ID/Info : UTF-8 Plain Text
Title : Full
Language : Russian
Default : No
Forced : No
Text #2
ID : 6
Format : UTF-8
Codec ID : S_TEXT/UTF8
Codec ID/Info : UTF-8 Plain Text
Title : Full
Language : English
Default : No
Forced : No
Text #3
ID : 7
Format : UTF-8
Codec ID : S_TEXT/UTF8
Codec ID/Info : UTF-8 Plain Text
Title : Full
Language : French
Default : No
Forced : No
Menu
00:00:00.000 : en:00:00:00.000
00:11:04.413 : en:00:11:04.413
00:21:13.689 : en:00:21:13.689
00:27:47.707 : en:00:27:47.707
00:35:23.454 : en:00:35:23.454
00:42:27.503 : en:00:42:27.503
00:49:35.681 : en:00:49:35.681
00:58:32.926 : en:00:58:32.926
01:05:55.826 : en:01:05:55.826
01:15:24.520 : en:01:15:24.520
01:23:29.254 : en:01:23:29.254
01:28:57.081 : en:01:28:57.081
01:36:46.592 : en:01:36:46.592
01:47:52.799 : en:01:47:52.799
01:56:38.324 : en:01:56:38.324

Скриншоты | Rip vs Source





Source



Показать сообщения:    

Текущее время: 08-Дек 14:59

Часовой пояс: UTC + 3


Вы не можете начинать темы
Вы не можете отвечать на сообщения
Вы не можете редактировать свои сообщения
Вы не можете удалять свои сообщения
Вы не можете голосовать в опросах
Вы не можете прикреплять файлы к сообщениям
Вы не можете скачивать файлы