(Classical) Franz Joseph Haydn - String Quartets Op.50 (Festetics Quartet) - 2009, WavPack (image+.cue) lossless


 

[Цитировать]

Franz Joseph Haydn - String Quartets Op.50 (Festetics Quartet)
Жанр: Classical
Год издания диска: 2009
Издатель (лейбл): Arcana
Номер по каталогу: 415
Дата записи: 1999
Аудиокодек: WavPack
Тип рипа: image+.cue
Битрейт аудио: lossless
Продолжительность: 2:31:07
Источник: скачано с
сайт-источник/ник/другое: eMule
Наличие сканов в содержимом раздачи: да
Треклист:
CD1
[1]-[4] Quartet B-Dur Hob.III/44
[5]-[8] Quartet C-Dur Hob.III/45
[9]-[12] Quartet Es-Dur Hob.III/46
CD2
[1]-[4] Quartet fis-moll Hob.III/47
[5]-[8] Quartet F-Dur Hob.III/48
[9]-[12] Quartet D-Dur Hob.III/49
Исполнители:
Festetics String Quartet
István Kertész, violon école milanaise, XVIIIe s.
Erika Petöfi, violon Matthias Thier, Vienne 1770
Peter Ligeti, alto Matthias Albanus, Bolzano 1651
Rezsö Pertorini, violoncelle anonyme français, XVIIe s.

Лог создания рипаCD 1

Exact Audio Copy V0.99 prebeta 5 from 4. May 2009
EAC extraction logfile from 3. June 2009, 9:22
Franz Joseph Haydn / String Quartets op. 50 (Disk 1)
Used drive : HL-DT-STDVDRAM GH20NS15 Adapter: 2 ID: 1
Read mode : Secure
Utilize accurate stream : Yes
Defeat audio cache : No
Make use of C2 pointers : No
Read offset correction : 667
Overread into Lead-In and Lead-Out : No
Fill up missing offset samples with silence : Yes
Delete leading and trailing silent blocks : No
Null samples used in CRC calculations : Yes
Used interface : Installed external ASPI interface
Used output format : Internal WAV Routines
Sample format : 44.100 Hz; 16 Bit; Stereo
TOC of the extracted CD
Track | Start | Length | Start sector | End sector
---------------------------------------------------------
1 | 0:00.00 | 8:15.31 | 0 | 37155
2 | 8:15.31 | 8:11.00 | 37156 | 73980
3 | 16:26.31 | 3:51.27 | 73981 | 91332
4 | 20:17.58 | 5:03.65 | 91333 | 114122
5 | 25:21.48 | 10:51.22 | 114123 | 162969
6 | 36:12.70 | 4:42.14 | 162970 | 184133
7 | 40:55.09 | 4:31.63 | 184134 | 204521
8 | 45:26.72 | 7:35.52 | 204522 | 238698
9 | 53:02.49 | 7:36.00 | 238699 | 272898
10 | 60:38.49 | 6:33.44 | 272899 | 302417
11 | 67:12.18 | 4:35.45 | 302418 | 323087
12 | 71:47.63 | 5:19.52 | 323088 | 347064
Range status and errors
Selected range
Filename D:\Haydn - String Quartets Op.50 - Festetics\Franz Joseph Haydn - String Quartets op. 50 (Disk 1).wav
Peak level 93.5 %
Range quality 100.0 %
Copy CRC D045DD9A
Copy OK
No errors occurred
AccurateRip summary
Track 1 cannot be verified as accurate (confidence 2) [C699D2E6], AccurateRip returned [9822E68F]
Track 2 cannot be verified as accurate (confidence 2) [85D24224], AccurateRip returned [39E66432]
Track 3 cannot be verified as accurate (confidence 2) [1F42F9CA], AccurateRip returned [C3961058]
Track 4 cannot be verified as accurate (confidence 2) [01108B02], AccurateRip returned [4935CA3B]
Track 5 cannot be verified as accurate (confidence 2) [137C54DC], AccurateRip returned [FBA04C10]
Track 6 cannot be verified as accurate (confidence 2) [86AE8D37], AccurateRip returned [BCA81371]
Track 7 cannot be verified as accurate (confidence 2) [BB549772], AccurateRip returned [A8EF7911]
Track 8 cannot be verified as accurate (confidence 2) [528C249F], AccurateRip returned [DFB0B3B8]
Track 9 cannot be verified as accurate (confidence 2) [C39117CD], AccurateRip returned [0C120C43]
Track 10 cannot be verified as accurate (confidence 2) [28F883A1], AccurateRip returned [F935BF65]
Track 11 cannot be verified as accurate (confidence 2) [524B1FB8], AccurateRip returned [445D2C8A]
Track 12 cannot be verified as accurate (confidence 2) [08C83FF6], AccurateRip returned [A415E4D5]
No tracks could be verified as accurate
You may have a different pressing from the one(s) in the database
End of status report

CD 2

Exact Audio Copy V0.99 prebeta 5 from 4. May 2009
EAC extraction logfile from 3. June 2009, 9:33
Franz Joseph Haydn / String Quartets op. 50 (Disk 2)
Used drive : HL-DT-STDVDRAM GH20NS15 Adapter: 2 ID: 1
Read mode : Secure
Utilize accurate stream : Yes
Defeat audio cache : No
Make use of C2 pointers : No
Read offset correction : 667
Overread into Lead-In and Lead-Out : No
Fill up missing offset samples with silence : Yes
Delete leading and trailing silent blocks : No
Null samples used in CRC calculations : Yes
Used interface : Installed external ASPI interface
Used output format : Internal WAV Routines
Sample format : 44.100 Hz; 16 Bit; Stereo
TOC of the extracted CD
Track | Start | Length | Start sector | End sector
---------------------------------------------------------
1 | 0:00.00 | 8:33.67 | 0 | 38541
2 | 8:33.67 | 7:42.23 | 38542 | 73214
3 | 16:16.15 | 4:47.13 | 73215 | 94752
4 | 21:03.28 | 2:33.16 | 94753 | 106243
5 | 23:36.44 | 7:45.43 | 106244 | 141161
6 | 31:22.12 | 4:03.17 | 141162 | 159403
7 | 35:25.29 | 4:31.18 | 159404 | 179746
8 | 39:56.47 | 6:27.19 | 179747 | 208790
9 | 46:23.66 | 9:52.32 | 208791 | 253222
10 | 56:16.23 | 7:30.46 | 253223 | 287018
11 | 63:46.69 | 4:48.53 | 287019 | 308671
12 | 68:35.47 | 5:26.30 | 308672 | 333151
Range status and errors
Selected range
Filename D:\Haydn - String Quartets Op.50 - Festetics\Franz Joseph Haydn - String Quartets op. 50 (Disk 2).wav
Peak level 96.5 %
Range quality 99.9 %
Copy CRC 657C4EF3
Copy OK
No errors occurred
AccurateRip summary
Track 1 cannot be verified as accurate (confidence 2) [5D96E57E], AccurateRip returned [D4B61862]
Track 2 cannot be verified as accurate (confidence 2) [9DDCFE3D], AccurateRip returned [394DD48A]
Track 3 cannot be verified as accurate (confidence 2) [C6DA2324], AccurateRip returned [D688104F]
Track 4 cannot be verified as accurate (confidence 2) [DB3CE825], AccurateRip returned [8BB821EA]
Track 5 cannot be verified as accurate (confidence 2) [57580B44], AccurateRip returned [16BCFE40]
Track 6 cannot be verified as accurate (confidence 2) [CBCB9BFA], AccurateRip returned [98C1BD7A]
Track 7 cannot be verified as accurate (confidence 2) [2C21E4B1], AccurateRip returned [6A21C0D3]
Track 8 cannot be verified as accurate (confidence 2) [54080393], AccurateRip returned [E78CA472]
Track 9 cannot be verified as accurate (confidence 2) [9613BE22], AccurateRip returned [3DEB3A64]
Track 10 cannot be verified as accurate (confidence 2) [59620E67], AccurateRip returned [302F41EB]
Track 11 cannot be verified as accurate (confidence 2) [CD5A182A], AccurateRip returned [FA7BD66D]
Track 12 cannot be verified as accurate (confidence 2) [02D0A1E8], AccurateRip returned [B35D59A7]
No tracks could be verified as accurate
You may have a different pressing from the one(s) in the database
End of status report

Содержание индексной карты (.CUE)CD 1

REM GENRE Classical
REM DATE 1999
REM DISCID B212130C
REM COMMENT ExactAudioCopy v0.99pb5
PERFORMER "Quatuor Festetics"
TITLE "String Quartets op. 50 (Disk 1)"
FILE "Franz Joseph Haydn - String Quartets op. 50 (Disk 1).wv" WAVE
TRACK 01 AUDIO
TITLE "Quartet B-Dur Hob.III/44 - I. Allegro"
PERFORMER "Quatuor Festetics"
INDEX 00 00:00:00
INDEX 01 00:01:60
TRACK 02 AUDIO
TITLE "Quartet B-Dur Hob.III/44 - II. Adagio"
PERFORMER "Quatuor Festetics"
INDEX 01 08:15:31
TRACK 03 AUDIO
TITLE "Quartet B-Dur Hob.III/44 - III. Menuetto. Poco allegretto"
PERFORMER "Quatuor Festetics"
INDEX 01 16:26:31
TRACK 04 AUDIO
TITLE "Quartet B-Dur Hob.III/44 - IV. Finale. Vivace assai"
PERFORMER "Quatuor Festetics"
INDEX 01 20:17:58
TRACK 05 AUDIO
TITLE "Quartet C-Dur Hob.III/45 - I. Vivace"
PERFORMER "Quatuor Festetics"
INDEX 00 25:11:97
INDEX 01 25:21:48
TRACK 06 AUDIO
TITLE "Quartet C-Dur Hob.III/45 - II. Adagio"
PERFORMER "Quatuor Festetics"
INDEX 01 36:12:70
TRACK 07 AUDIO
TITLE "Quartet C-Dur Hob.III/45 - III. Menuetto. Allegro"
PERFORMER "Quatuor Festetics"
INDEX 01 40:55:09
TRACK 08 AUDIO
TITLE "Quartet C-Dur Hob.III/45 - IV. Finale. Vivace assai"
PERFORMER "Quatuor Festetics"
INDEX 01 45:26:72
TRACK 09 AUDIO
TITLE "Quartet Es-Dur Hob.III/46 - I. Allegro con brio"
PERFORMER "Quatuor Festetics"
INDEX 00 52:56:55
INDEX 01 53:02:49
TRACK 10 AUDIO
TITLE "Quartet Es-Dur Hob.III/46 - II. Andante piu tosto allegretto"
PERFORMER "Quatuor Festetics"
INDEX 01 60:38:49
TRACK 11 AUDIO
TITLE "Quartet Es-Dur Hob.III/46 - III. Menuetto. Allegretto"
PERFORMER "Quatuor Festetics"
INDEX 01 67:12:18
TRACK 12 AUDIO
TITLE "Quartet Es-Dur Hob.III/46 - IV. Finale. Presto"
PERFORMER "Quatuor Festetics"
INDEX 01 71:47:63

CD 2

REM GENRE Classical
REM DATE 1999
REM DISCID C5115A0C
REM COMMENT ExactAudioCopy v0.99pb5
PERFORMER "Quatuor Festetics"
TITLE "String Quartets op. 50 (Disk 2)"
FILE "Franz Joseph Haydn - String Quartets op. 50 (Disk 2).wv" WAVE
TRACK 01 AUDIO
TITLE "Quartet fis-moll Hob.III/47 - I. Allegro spiritoso"
PERFORMER "Quatuor Festetics"
INDEX 01 00:00:00
TRACK 02 AUDIO
TITLE "Quartet fis-moll Hob.III/47 - II. Andante"
PERFORMER "Quatuor Festetics"
INDEX 01 08:33:67
TRACK 03 AUDIO
TITLE "Quartet fis-moll Hob.III/47 - III. Menuetto. Poco allegretto"
PERFORMER "Quatuor Festetics"
INDEX 01 16:16:15
TRACK 04 AUDIO
TITLE "Quartet fis-moll Hob.III/47 - IV. Finale. Fuga. Allegro molto"
PERFORMER "Quatuor Festetics"
INDEX 01 21:03:28
TRACK 05 AUDIO
TITLE "Quartet F-Dur Hob.III/48 - I. Allegro moderato"
PERFORMER "Quatuor Festetics"
INDEX 00 23:26:44
INDEX 01 23:36:44
TRACK 06 AUDIO
TITLE "Quartet F-Dur Hob.III/48 - II. Poco adagio"
PERFORMER "Quatuor Festetics"
INDEX 01 31:22:12
TRACK 07 AUDIO
TITLE "Quartet F-Dur Hob.III/48 - III. Tempo di Menuetto. Allegretto"
PERFORMER "Quatuor Festetics"
INDEX 01 35:25:29
TRACK 08 AUDIO
TITLE "Quartet F-Dur Hob.III/48 - IV. Finale. Vivace"
PERFORMER "Quatuor Festetics"
INDEX 01 39:56:47
TRACK 09 AUDIO
TITLE "Quartet D-Dur Hob.III/49 - I. Allegro"
PERFORMER "Quatuor Festetics"
INDEX 01 46:09:66
INDEX 01 46:23:66
TRACK 10 AUDIO
TITLE "Quartet D-Dur Hob.III/49 - II. Poco adagio"
PERFORMER "Quatuor Festetics"
INDEX 01 56:16:23
TRACK 11 AUDIO
TITLE "Quartet D-Dur Hob.III/49 - III. Menuetto. Allegretto"
PERFORMER "Quatuor Festetics"
INDEX 01 63:46:69
TRACK 12 AUDIO
TITLE "Quartet D-Dur Hob.III/49 - IV. Finale. Allegro con spirito"
PERFORMER "Quatuor Festetics"
INDEX 01 68:35:47



Показать сообщения:    

Текущее время: 10-Дек 17:48

Часовой пояс: UTC + 3


Вы не можете начинать темы
Вы не можете отвечать на сообщения
Вы не можете редактировать свои сообщения
Вы не можете удалять свои сообщения
Вы не можете голосовать в опросах
Вы не можете прикреплять файлы к сообщениям
Вы не можете скачивать файлы