Хью Лори: Пусть Говорят / Hugh Laurie: Let Them Talk (Джон-Пол Дэвидсон / John-Paul Davidson) [2011, Документальный, DVBRip-AVC] VO (СВ-Дубль)


Статистика раздачи [Обновить пиров]
Размер:  630 MB   |    Зарегистрирован:  8 месяцев 15 дней   |    Скачан:  0 раз

Полного источника не было: Никогда

 
   
 
 
 

[Цитировать]

Хью Лори: Пусть Говорят / Hugh Laurie: Let Them Talk- Дата/Год выпуска: 2011
Страна: Великобритания
Студия: BBC
Жанр: Документальный
Продолжительность: 0:52:00
Перевод: Профессиональный (одноголосый закадровый) | студия "СВ-Дубль" по заказу "ГТРК Культура"
Режиссер: Джон-Пол Дэвидсон / John-Paul Davidson-Описание: Концерт популярнейшего британского актера и музыканта Хью Лори, известного зрителям по фильмам "Дживс и Вустер", "Доктор Хаус" и других. Прозвучат джазовые стандарты и блюзовые композиции, вошедшие в его дебютный альбом 2011 года "Let Them Talk". Лори, кроме того, что исполняет вокальные партии, также играет на фортепиано и гитаре. Также, Хью Лори прогуляется по улицам Нового Орлеана и расскажет зрителям про историю джаза, связанную с этим городом.-Автор рипа: lrn
Автор записи: Alexin29
Сэмпл: sendfile-качество: DVBRip-AVC
формат: MKV
Видео: 704x400 (16:9), 25,000 fps, H264, ~1500 kbps avg, ~0.213 bit/pixel
Аудио: 48 kHz, AC3 Dolby Digital, 2/0 (L,R) ch, ~192.00 kbps avg-

MediaInfo

General
Unique ID : 184587043313666054841889156025415918255 (0x8ADE2BE149AE89E09161BD12D41462AF)
Complete name : E:\uTorrent.Temp\Temp\Hugh.Laurie.Let.Them.Talk.2011.DVBRip-AVC.x264-RUS-lrn.mkv
Format : Matroska
Format version : Version 4 / Version 2
File size : 630 MiB
Duration : 52mn 0s
Overall bit rate : 1 694 Kbps
Movie name : Hugh.Laurie.Let.Them.Talk.2011.DVBRip-AVC.x264-RUS-lrn
Encoded date : UTC 2010-02-22 21:41:31
Writing application : mkvmerge v5.9.0 ('On The Loose') built on Dec 9 2012 15:37:01
Writing library : libebml v1.3.0 + libmatroska v1.4.0
DURATION : 00:52:00.080000000
NUMBER_OF_FRAMES : 78002
NUMBER_OF_BYTES : 584987571
_STATISTICS_WRITING_APP : mkvmerge v7.7.0 ('Six Voices') 32bit built on Feb 28 2015 23:23:00
_STATISTICS_WRITING_DATE_UT : 2015-09-26 11:09:20
_STATISTICS_TAGS : BPS DURATION NUMBER_OF_FRAMES NUMBER_OF_BYTES
Video
ID : 1
Format : AVC
Format/Info : Advanced Video Codec
Format profile : High@L4.1
Format settings, CABAC : Yes
Format settings, ReFrames : 8 frames
Codec ID : V_MPEG4/ISO/AVC
Duration : 52mn 0s
Bit rate : 1 500 Kbps
Width : 704 pixels
Height : 400 pixels
Display aspect ratio : 16:9
Frame rate mode : Constant
Frame rate : 25.000 fps
Color space : YUV
Chroma subsampling : 4:2:0
Bit depth : 8 bits
Scan type : Progressive
Bits/(Pixel*Frame) : 0.213
Stream size : 546 MiB (87%)
Writing library : x264 core 146 r2538 121396c
Encoding settings : cabac=1 / ref=8 / deblock=1:-3:-3 / analyse=0x3:0x133 / me=umh / subme=9 / psy=1 / psy_rd=1.00:0.00 / mixed_ref=1 / me_range=32 / chroma_me=1 / trellis=2 / 8x8dct=1 / cqm=0 / deadzone=21,11 / fast_pskip=1 / chroma_qp_offset=-2 / threads=12 / lookahead_threads=2 / sliced_threads=0 / nr=0 / decimate=1 / interlaced=0 / bluray_compat=0 / constrained_intra=0 / bframes=8 / b_pyramid=2 / b_adapt=2 / b_bias=0 / direct=3 / weightb=1 / open_gop=0 / weightp=2 / keyint=250 / keyint_min=25 / scenecut=40 / intra_refresh=0 / rc_lookahead=50 / rc=2pass / mbtree=1 / bitrate=1500 / ratetol=1.0 / qcomp=0.60 / qpmin=0 / qpmax=69 / qpstep=4 / cplxblur=20.0 / qblur=0.5 / vbv_maxrate=62500 / vbv_bufsize=78125 / nal_hrd=none / filler=0 / ip_ratio=1.40 / aq=1:1.00
Default : Yes
Forced : No
Audio
ID : 2
Format : AC-3
Format/Info : Audio Coding 3
Mode extension : CM (complete main)
Format settings, Endianness : Big
Codec ID : A_AC3
Duration : 52mn 0s
Bit rate mode : Constant
Bit rate : 192 Kbps
Channel(s) : 2 channels
Channel positions : Front: L R
Sampling rate : 48.0 KHz
Compression mode : Lossy
Stream size : 71.4 MiB (11%)
Language : Russian
Default : Yes
Forced : No

x264 log

raw [info]: 704x400p 1:1 @ 25/1 fps (cfr)
x264 [info]: using SAR=1/1
x264 [info]: using cpu capabilities: MMX2 SSE2Fast SSSE3 SSE4.2 AVX
x264 [info]: profile High, level 4.1
x264 [info]: frame I:659 Avg QP:14.26 size: 46337
x264 [info]: frame P:20253 Avg QP:17.11 size: 16611
x264 [info]: frame B:57090 Avg QP:20.34 size: 3819
x264 [info]: consecutive B-frames: 1.7% 3.4% 5.4% 78.1% 5.2% 5.0% 0.7% 0.3% 0.1%
x264 [info]: mb I I16..4: 4.2% 69.1% 26.7%
x264 [info]: mb P I16..4: 1.5% 9.3% 1.5% P16..4: 39.2% 26.8% 17.3% 1.4% 0.5% skip: 2.5%
x264 [info]: mb B I16..4: 0.2% 0.7% 0.2% B16..8: 36.8% 10.9% 2.7% direct: 7.0% skip:41.6% L0:36.9% L1:42.9% BI:20.2%
x264 [info]: 8x8 transform intra:73.4% inter:51.6%
x264 [info]: direct mvs spatial:98.5% temporal:1.5%
x264 [info]: coded y,uvDC,uvAC intra: 77.3% 89.2% 62.5% inter: 24.9% 27.2% 3.3%
x264 [info]: i16 v,h,dc,p: 29% 22% 17% 32%
x264 [info]: i8 v,h,dc,ddl,ddr,vr,hd,vl,hu: 13% 12% 12% 7% 11% 11% 12% 10% 12%
x264 [info]: i4 v,h,dc,ddl,ddr,vr,hd,vl,hu: 13% 14% 8% 8% 12% 12% 12% 9% 12%
x264 [info]: i8c dc,h,v,p: 39% 29% 19% 13%
x264 [info]: Weighted P-Frames: Y:2.2% UV:0.6%
x264 [info]: ref P L0: 53.3% 11.5% 14.9% 5.6% 4.6% 3.8% 3.4% 2.6% 0.2% 0.0%
x264 [info]: ref B L0: 83.8% 8.6% 3.0% 1.8% 1.3% 1.0% 0.6%
x264 [info]: ref B L1: 96.6% 3.4%
x264 [info]: kb/s:1499.93
encoded 78002 frames, 45.15 fps, 1499.93 kb/s

Скриншоты

-
[teatrix.ru].t22341.torrent 
Торрент: Зарегистрирован [ 2016-03-20 12:37 ] · 6D4158703EECCBB6DA19B75B99FE90217CB8EAA8

Скачать .torrent

Скачать

13 KB

Статус: проверено
Скачан: 0 раз
Размер: 630 MB
terms.php



Быстрый ответ

Имя:

      
Для отправки сообщений необходимо включить JavaScript
Показать сообщения:    

Текущее время: 05-Дек 11:32

Часовой пояс: UTC + 3


Вы можете начинать темы
Вы можете отвечать на сообщения
Вы не можете редактировать свои сообщения
Вы не можете удалять свои сообщения
Вы не можете голосовать в опросах
Вы не можете прикреплять файлы к сообщениям
Вы можете скачивать файлы