Сорок минут с Дуровым (Петр Шепотинник) [1997-2012, Документальный, личность, SATRip-AVC]


Статистика раздачи [Обновить пиров]
Размер:  708 MB   |    Зарегистрирован:  8 месяцев 17 дней   |    Скачан:  1 раз
Сидов:  1  [  0 KB/s  ]   Подробная статистика пиров
 
   
 
 
 

[Цитировать]

-Сорок минут с Дуровым- Год выпуска: 1997-2012
Страна: Россия
Жанр: Документальный, личность
Продолжительность: 00:38:08
Перевод: Не требуется
Субтитры: нет-Режиссер: Петр Шепотинник-Описание: Фильм-монолог Льва Дурова, которого называют "вечным двигателем", актера, обладающего редким талантом балансировать на грани трагедии и фарса, артиста которого многие режиссеры считают полноправным соавтором своих произведений. Он снимался в фильмах знаменитых кинорежиссеров: Михаила Ромма, Василия Шукшина, Татьяны Лиозновой. 27 лет проработал с великим театральным режиссером Анатолием Эфросом, и сыграл у него в спектаклях не одну роль. В фильме звучат искренние, порой горькие откровения актера.-Сэмпл: https://yadi.sk/i/fJnsDOFhjLvD7-Качество: SATRip-AVC
Формат: MKV
Видео кодек: H.264
Аудио кодек: AC3
Видео: 720x544 (1.32:1), 25 fps, ~2400 kbps
Аудио: 48 kHz, AC3 Dolby Digital, 2/0 (L,R) ch, ~192 kbps

MediaInfo

General
Unique ID : 248385090207021784064574936172170677647 (0xBADD3A71AA7350A08C8296ECF6C18D8F)
Complete name : C:\Torrent\Сорок минут с Дуровым.SATRip-AVC by Dmitrio7197\Сорок минут с Дуровым.SATRip-AVC by Dmitrio7197.mkv
Format : Matroska
Format version : Version 2
File size : 708 MiB
Duration : 38mn 8s
Overall bit rate : 2 594 Kbps
Encoded date : UTC 2015-09-26 22:52:33
Writing application : mkvmerge v6.1.0 ('Old Devil') built on Mar 4 2013 09:10:42
Writing library : libebml v1.3.0 + libmatroska v1.4.0
Video
ID : 1
Format : AVC
Format/Info : Advanced Video Codec
Format profile : High@L4.1
Format settings, CABAC : Yes
Format settings, ReFrames : 8 frames
Codec ID : V_MPEG4/ISO/AVC
Duration : 38mn 8s
Bit rate : 2 400 Kbps
Width : 720 pixels
Height : 544 pixels
Display aspect ratio : 4:3
Frame rate mode : Constant
Frame rate : 25.000 fps
Color space : YUV
Chroma subsampling : 4:2:0
Bit depth : 8 bits
Scan type : Progressive
Bits/(Pixel*Frame) : 0.245
Stream size : 641 MiB (91%)
Writing library : x264 core 130 r2273 b3065e6
Encoding settings : cabac=1 / ref=8 / deblock=1:0:0 / analyse=0x3:0x113 / me=umh / subme=10 / psy=1 / psy_rd=1.00:0.00 / mixed_ref=1 / me_range=24 / chroma_me=1 / trellis=2 / 8x8dct=1 / cqm=0 / deadzone=21,11 / fast_pskip=1 / chroma_qp_offset=-2 / threads=6 / lookahead_threads=1 / sliced_threads=0 / nr=0 / decimate=0 / interlaced=0 / bluray_compat=0 / constrained_intra=0 / bframes=8 / b_pyramid=2 / b_adapt=1 / b_bias=0 / direct=3 / weightb=1 / open_gop=0 / weightp=2 / keyint=250 / keyint_min=25 / scenecut=40 / intra_refresh=0 / rc_lookahead=40 / rc=2pass / mbtree=1 / bitrate=2400 / ratetol=1.0 / qcomp=0.60 / qpmin=0 / qpmax=69 / qpstep=4 / cplxblur=20.0 / qblur=0.5 / ip_ratio=1.40 / aq=1:1.00
Default : Yes
Forced : No
Audio
ID : 2
Format : AC-3
Format/Info : Audio Coding 3
Mode extension : CM (complete main)
Format settings, Endianness : Big
Codec ID : A_AC3
Duration : 38mn 8s
Bit rate mode : Constant
Bit rate : 192 Kbps
Channel(s) : 2 channels
Channel positions : Front: L R
Sampling rate : 48.0 KHz
Bit depth : 16 bits
Compression mode : Lossy
Stream size : 52.4 MiB (7%)
Default : Yes
Forced : No

Скриншоты

[teatrix.ru].t22344.torrent 
Торрент: Зарегистрирован [ 2016-03-20 12:37 ] · 4956FE7F0B60A7EF613944F60B44D75168D1C9C8

Скачать .torrent

Скачать

14 KB

Статус: проверено
Скачан: 1 раз
Размер: 708 MB
terms.php



Быстрый ответ

Имя:

      
Для отправки сообщений необходимо включить JavaScript
Показать сообщения:    

Текущее время: 06-Дек 15:15

Часовой пояс: UTC + 3


Вы можете начинать темы
Вы можете отвечать на сообщения
Вы не можете редактировать свои сообщения
Вы не можете удалять свои сообщения
Вы не можете голосовать в опросах
Вы не можете прикреплять файлы к сообщениям
Вы можете скачивать файлы