Яма / La Buca (Даниэле Чипри / Daniele Ciprì) [2014, Италия, Швейцария, Франция, Комедия, DVDRip] + Sub Rus + Original Ita


Статистика раздачи [Обновить пиров]
Размер:  1.36 GB   |    Зарегистрирован:  8 месяцев 14 дней   |    Скачан:  0 раз

Полного источника не было: Никогда

 
   
 
 
 

[Цитировать]

Яма / La Buca
Страна: Италия, Швейцария, Франция
Жанр: Комедия
Год выпуска: 2014
Продолжительность: 01:29:46
Перевод: Субтитры
Cубтитры: русские
Оригинальная аудиодорожка: итальянский
Режиссер: Даниэле Чипри / Daniele Ciprì
В ролях: Валерия Бруни Тедески / Valeria Bruni Tedeschi, Серджио Кастелитто / Sergio Castellitto, Теко Челио / Teco Celio
Описание: Последний на сегодня фильм экстравагантного итальянского комедиографа. Это история об Оскаре, незадачливом и нечестном адвокате, женоненавистнике и мизантропе, который волею случая встречает Армандо, только что вышедшего из тюрьмы. Целых 27 лет он провел за решеткой за ограбление и убийство, но считает себя невиновным. Почуяв приличный куш, Оскар берется отстаивать его права в суде, с целью получить щедрую компенсацию. Сопровождаемые собакой по имени Интернационал, они начинают искать свидетелей. Да вот незадача, одним из них оказывается бывшая любовь Армандо Арианна...
Сэмпл: http://sendfile.su/1158691
Качество видео: DVDRip
Формат видео: MKV
Видео: 1 679 Kbps, 720*304 (2.35:1), at 25.000 fps, MPEG-4 Visual (XviD) (Advanced Simple@L5) (BVOP)
Аудио: 448 Kbps, 48.0 KHz, 16 bits, 6 channels, AC-3
Формат субтитров: softsub (forced)

MediaInfo

General
Unique ID : 233965771463088462305017984544212965348 (0xB0042B24460F323D86F80692E426D7E4)
Complete name : C:\Users\Никита\Desktop\LA BUCA.mkv
Format : Matroska
Format version : Version 4 / Version 2
File size : 1.36 GiB
Duration : 1h 29mn
Overall bit rate : 2 170 Kbps
Encoded date : UTC 2015-09-27 11:30:20
Writing application : mkvmerge v7.6.0 ('Garden of Dreams') 64bit built on Feb 8 2015 13:04:34
Writing library : libebml v1.3.1 + libmatroska v1.4.2
DURATION : 01:22:12.248000000
NUMBER_OF_FRAMES : 846
NUMBER_OF_BYTES : 46212
_STATISTICS_WRITING_APP : mkvmerge v7.6.0 ('Garden of Dreams') 64bit built on Feb 8 2015 13:04:34
_STATISTICS_WRITING_DATE_UTC : 2015-09-27 11:30:20
_STATISTICS_TAGS : BPS DURATION NUMBER_OF_FRAMES NUMBER_OF_BYTES
Video
ID : 1
Format : MPEG-4 Visual
Format profile : Advanced Simple@L5
Format settings, BVOP : Yes
Format settings, QPel : No
Format settings, GMC : No warppoints
Format settings, Matrix : Default (MPEG)
Codec ID : V_MS/VFW/FOURCC / XVID
Codec ID/Hint : XviD
Duration : 1h 29mn
Bit rate : 1 679 Kbps
Width : 720 pixels
Height : 304 pixels
Display aspect ratio : 2.35:1
Frame rate mode : Constant
Frame rate : 25.000 fps
Color space : YUV
Chroma subsampling : 4:2:0
Bit depth : 8 bits
Scan type : Progressive
Compression mode : Lossy
Bits/(Pixel*Frame) : 0.307
Stream size : 1.05 GiB (77%)
Writing library : XviD 1.2.1 (UTC 2008-12-04)
Default : Yes
Forced : No
Audio
ID : 2
Format : AC-3
Format/Info : Audio Coding 3
Mode extension : CM (complete main)
Format settings, Endianness : Big
Codec ID : A_AC3
Duration : 1h 29mn
Bit rate mode : Constant
Bit rate : 448 Kbps
Channel(s) : 6 channels
Channel positions : Front: L C R, Side: L R, LFE
Sampling rate : 48.0 KHz
Bit depth : 16 bits
Compression mode : Lossy
Stream size : 288 MiB (21%)
Default : Yes
Forced : No
Text
ID : 3
Format : UTF-8
Codec ID : S_TEXT/UTF8
Codec ID/Info : UTF-8 Plain Text
Language : Russian
Default : Yes
Forced : Yes

Скриншот c названием фильма

Скриншоты


Фрагмент субтитров

320
00:35:56,240 --> 00:35:58,607
Теперь мы просто друзья.
321
00:35:58,800 --> 00:36:03,124
Мы здесь друг для друга...
322
00:36:03,200 --> 00:36:05,851
Этот инвалид мог сломать ногу.
323
00:36:05,920 --> 00:36:10,721
Он это и планирует!
Он не инвалид.
324
00:36:10,920 --> 00:36:14,288
Они хотят, чтобы Совет заплатил им.
325
00:36:14,360 --> 00:36:16,567
С помощью доктора Теренцио...
326
00:36:16,760 --> 00:36:19,570
- Но это обман!
- Да, это обман.
327
00:36:21,360 --> 00:36:23,362
Он мизантроп, женоненавистник.
328
00:36:23,440 --> 00:36:25,363
Он ненавидит людей, животных...
329
00:36:25,560 --> 00:36:29,451
он не терпит прикосновений,
никого не хочет видеть у себя дома.
330
00:36:29,680 --> 00:36:32,286
За все это время, я только
один раз его навестила.
331
00:36:32,480 --> 00:36:34,084
И то, потому что он заболел.
332
00:36:34,600 --> 00:36:37,604
Но я же остановился у него!
Да еще и с собакой!
333
00:36:37,800 --> 00:36:41,282
Это разное.
Ты - это часть работы...
334
00:36:44,800 --> 00:36:48,247
Значит, я как мнимый инвалид.
335
00:36:52,480 --> 00:36:54,960
Только не осложняй!
336
00:37:08,600 --> 00:37:10,409
- Где он?
[teatrix.ru].t22346.torrent 
Торрент: Зарегистрирован [ 2016-03-20 12:37 ] · EEFBB312880C7720952DB7FDD84658D4E61738BE

Скачать .torrent

Скачать

14 KB

Статус: проверено
Скачан: 0 раз
Размер: 1.36 GB
terms.php



Быстрый ответ

Имя:

      
Для отправки сообщений необходимо включить JavaScript
Показать сообщения:    

Текущее время: 04-Дек 11:15

Часовой пояс: UTC + 3


Вы можете начинать темы
Вы можете отвечать на сообщения
Вы не можете редактировать свои сообщения
Вы не можете удалять свои сообщения
Вы не можете голосовать в опросах
Вы не можете прикреплять файлы к сообщениям
Вы можете скачивать файлы