(Opera) Albeniz - Pepita Jimenez (Domingo, Vaness, Henschel, Baquerizo - Coro & Orquesta de la Comunidad de Madrid, De Eusebio) - 2006 - world premiere studio recording, APE (image+.cue) lossless


 

[Цитировать]

Isaac Albéniz - Pepita Jiménez
Жанр: Opera
Страна-производитель диска: Germany
Год издания диска: 2006
Издатель (лейбл): Deutsche Grammophon
Номер по каталогу: 00289 477 6234
Дата записи: 1999
Аудиокодек: APE
Тип рипа: image+.cue
Битрейт аудио: lossless
Продолжительность: 44'29+46'23
Источник: собственный рип
Наличие сканов в содержимом раздачи: да
Треклист:

CD1

Act 1
1. Donna Pepita! Pepita
2. Pepita loves my Luis?
3. Who eats a sour banana
4. He promised her to learn to ride
5. You've pulled the blind
6. So, here's the shrine
7. Ssh! Pepita!
8. Don Pedro! Always handy!
9. Come, come my little acolyte
10. Far better live on acolyte
11. Well, have you said good-bye
12. My child, your hand is cold
13. Do you remember, one day
14. Yet take courage!
15. Holy marriage!
16. Ah, no! He loves Pepita!
17. And I'm so wicked
18. Your words serene
19. Farewell, my child!
20. This is the way with your drone
21. The rev'rend father has admonished me!
22. Ah! Mother of sorrows
23. I've come to bid farewell
24. Away into the wilderness!
25. This really is outrageaous!
26. The devil take your consolation!
27. I cannot do your pleasure!
28. Take heart!
29. O, 'Tona, you're a prophet!
30. Yes, Pepita's very sly
31. When but sixteen, Pepita
32. I've come to beg your pardon

CD2

Act 2
1. Prelude
2. All is ready!
3. 'Tona! How gladly
4. Heigh-ho! Who preaches love
5. Who teaches love was made accurs'd
6. Pepita! - Sweet lady!
7. Yes, by their innocence
8. Born into common humility
9. Ballet
10. Dance, dance, little darlings
11. Thank you, my friends
12. Forgive me! 'Tis best I retire, to rest
13. Interlude
14. Love moves by night!
15. Allegretto come prima. Love moves by night
16. Oh! Luis, this last sad meeting
17. To gather sweet flowers
18. Sweet friend! No earthly union
19. My God! I cannot bear it!
20. Go! Bear my latest breath
21. Farewell! Farewell!
Исполнители:
Isaac Albéniz - Pepita Jiménez
Lyric Comic Opera in 2 Acts
Don Luis - Plácido Domingo (tenor)
Pepita - Carol Vaness (soprano)
Antonona - Jane Henschel (mezzosoprano)
Don Pedro - Enrique Baquerizo (bariton)
Vicar - Carlos Chausson (bass)
Coro de Ninos de la Comunidad de Madrid
Coro de la Comunidad de Madrid
Orquesta de la Comunidad de Madrid
José de Eusebio (conductor)

Лог создания рипа

CD1

Exact Audio Copy V1.0 beta 6 from 9. April 2015
EAC extraction logfile from 25. September 2015, 18:46
Domingo, Vaness, Henschel - Orqueste e Coro Comunidad de Madrid, De Eusebio / Albéniz - Pepita Jiménez, De Eusebio CD1
Used drive : TSSTcorpCDDVDW SE-208AB Adapter: 1 ID: 2
Read mode : Secure
Utilize accurate stream : Yes
Defeat audio cache : Yes
Make use of C2 pointers : No
Read offset correction : 6
Overread into Lead-In and Lead-Out : No
Fill up missing offset samples with silence : Yes
Delete leading and trailing silent blocks : No
Null samples used in CRC calculations : Yes
Used interface : Native Win32 interface for Win NT & 2000
Used output format : Monkey's Audio Lossless Encoder
Selected bitrate : High Lossless Compression
Quality : High
Add ID3 tag : Yes
Command line compressor : C:\Program Files (x86)\Exact Audio Copy\MAC\MAC.exe
TOC of the extracted CD
Track | Start | Length | Start sector | End sector
---------------------------------------------------------
1 | 0:00.00 | 1:56.54 | 0 | 8753
2 | 1:56.54 | 1:29.49 | 8754 | 15477
3 | 3:26.28 | 1:20.10 | 15478 | 21487
4 | 4:46.38 | 1:04.61 | 21488 | 26348
5 | 5:51.24 | 2:03.03 | 26349 | 35576
6 | 7:54.27 | 1:18.70 | 35577 | 41496
7 | 9:13.22 | 1:17.18 | 41497 | 47289
8 | 10:30.40 | 1:03.16 | 47290 | 52030
9 | 11:33.56 | 0:53.37 | 52031 | 56042
10 | 12:27.18 | 0:50.44 | 56043 | 59836
11 | 13:17.62 | 1:00.22 | 59837 | 64358
12 | 14:18.09 | 1:14.65 | 64359 | 69973
13 | 15:32.74 | 2:13.00 | 69974 | 79948
14 | 17:45.74 | 1:29.10 | 79949 | 86633
15 | 19:15.09 | 1:40.39 | 86634 | 94172
16 | 20:55.48 | 1:37.21 | 94173 | 101468
17 | 22:32.69 | 1:49.16 | 101469 | 109659
18 | 24:22.10 | 1:09.22 | 109660 | 114856
19 | 25:31.32 | 0:55.13 | 114857 | 118994
20 | 26:26.45 | 1:22.62 | 118995 | 125206
21 | 27:49.32 | 1:56.61 | 125207 | 133967
22 | 29:46.18 | 0:41.13 | 133968 | 137055
23 | 30:27.31 | 3:42.07 | 137056 | 153712
24 | 34:09.38 | 1:29.56 | 153713 | 160443
25 | 35:39.19 | 0:39.16 | 160444 | 163384
26 | 36:18.35 | 1:01.70 | 163385 | 168029
27 | 37:20.30 | 0:43.62 | 168030 | 171316
28 | 38:04.17 | 1:32.01 | 171317 | 178217
29 | 39:36.18 | 1:03.31 | 178218 | 182973
30 | 40:39.49 | 1:22.10 | 182974 | 189133
31 | 42:01.59 | 1:32.16 | 189134 | 196049
32 | 43:34.00 | 0:55.00 | 196050 | 200174
Range status and errors
Selected range
Filename D:\EAC\Albéniz - Pepita Jiménez, De Eusebio CD1.wav
Peak level 98.5 %
Extraction speed 4.2 X
Range quality 100.0 %
Test CRC 1696BB28
Copy CRC 1696BB28
Copy OK
No errors occurred
AccurateRip summary
Track 1 accurately ripped (confidence 2) [A58BAFC3] (AR v2)
Track 2 accurately ripped (confidence 2) [454DA07D] (AR v2)
Track 3 accurately ripped (confidence 2) [4CB609D8] (AR v2)
Track 4 accurately ripped (confidence 2) [20111F59] (AR v2)
Track 5 accurately ripped (confidence 2) [B21F74FA] (AR v2)
Track 6 accurately ripped (confidence 2) [D9696ED9] (AR v2)
Track 7 accurately ripped (confidence 2) [76714B75] (AR v2)
Track 8 accurately ripped (confidence 2) [FE25743D] (AR v2)
Track 9 accurately ripped (confidence 2) [73166EDB] (AR v2)
Track 10 accurately ripped (confidence 2) [AEE1CA80] (AR v2)
Track 11 accurately ripped (confidence 2) [2ED6BA1A] (AR v2)
Track 12 accurately ripped (confidence 2) [65E85734] (AR v2)
Track 13 accurately ripped (confidence 2) [E3FD52B2] (AR v2)
Track 14 accurately ripped (confidence 2) [A5748FC0] (AR v2)
Track 15 accurately ripped (confidence 2) [F1F5D2D7] (AR v2)
Track 16 accurately ripped (confidence 2) [C71F4D26] (AR v2)
Track 17 accurately ripped (confidence 2) [C07DE77A] (AR v2)
Track 18 accurately ripped (confidence 2) [8D613605] (AR v2)
Track 19 accurately ripped (confidence 2) [D2D879A1] (AR v2)
Track 20 accurately ripped (confidence 2) [9D54BB75] (AR v2)
Track 21 accurately ripped (confidence 2) [421C0998] (AR v2)
Track 22 accurately ripped (confidence 2) [8BA960E9] (AR v2)
Track 23 accurately ripped (confidence 2) [C763B765] (AR v2)
Track 24 accurately ripped (confidence 2) [D2BD30BC] (AR v2)
Track 25 accurately ripped (confidence 2) [05696712] (AR v2)
Track 26 accurately ripped (confidence 2) [0019AA37] (AR v2)
Track 27 accurately ripped (confidence 2) [7390AF3A] (AR v2)
Track 28 accurately ripped (confidence 2) [C4D97BF7] (AR v2)
Track 29 accurately ripped (confidence 2) [F45A9734] (AR v2)
Track 30 accurately ripped (confidence 2) [D6ECFFDD] (AR v2)
Track 31 accurately ripped (confidence 2) [77404499] (AR v2)
Track 32 accurately ripped (confidence 2) [FDC865ED] (AR v2)
All tracks accurately ripped
End of status report
---- CUETools DB Plugin V2.1.6
[CTDB TOCID: GVn5AeB2v3f3MJDFtWjifxd5Fxg-] found
Submit result: GVn5AeB2v3f3MJDFtWjifxd5Fxg- has been confirmed
Track | CTDB Status
1 | (2/2) Accurately ripped
2 | (2/2) Accurately ripped
3 | (2/2) Accurately ripped
4 | (2/2) Accurately ripped
5 | (2/2) Accurately ripped
6 | (2/2) Accurately ripped
7 | (2/2) Accurately ripped
8 | (2/2) Accurately ripped
9 | (2/2) Accurately ripped
10 | (2/2) Accurately ripped
11 | (2/2) Accurately ripped
12 | (2/2) Accurately ripped
13 | (2/2) Accurately ripped
14 | (2/2) Accurately ripped
15 | (2/2) Accurately ripped
16 | (2/2) Accurately ripped
17 | (2/2) Accurately ripped
18 | (2/2) Accurately ripped
19 | (2/2) Accurately ripped
20 | (2/2) Accurately ripped
21 | (2/2) Accurately ripped
22 | (2/2) Accurately ripped
23 | (2/2) Accurately ripped
24 | (2/2) Accurately ripped
25 | (2/2) Accurately ripped
26 | (2/2) Accurately ripped
27 | (2/2) Accurately ripped
28 | (2/2) Accurately ripped
29 | (2/2) Accurately ripped
30 | (2/2) Accurately ripped
31 | (2/2) Accurately ripped
32 | (2/2) Accurately ripped
==== Log checksum 61E7B353EE0B20B38C63D00CA28888DC192202F9FBFF059626B5E33D7197FD57 ====

CD2

Exact Audio Copy V1.0 beta 6 from 9. April 2015
EAC extraction logfile from 25. September 2015, 18:48
Domingo, Vaness, Henschel - Orqueste e Coro Comunidad de Madrid, De Eusebio / Albéniz - Pepita Jiménez, De Eusebio CD2
Used drive : TS8XDVDSTRANSCEND Adapter: 1 ID: 1
Read mode : Secure
Utilize accurate stream : Yes
Defeat audio cache : Yes
Make use of C2 pointers : No
Read offset correction : 6
Overread into Lead-In and Lead-Out : No
Fill up missing offset samples with silence : Yes
Delete leading and trailing silent blocks : No
Null samples used in CRC calculations : Yes
Used interface : Native Win32 interface for Win NT & 2000
Used output format : Monkey's Audio Lossless Encoder
Selected bitrate : High Lossless Compression
Quality : High
Add ID3 tag : Yes
Command line compressor : C:\Program Files (x86)\Exact Audio Copy\MAC\MAC.exe
TOC of the extracted CD
Track | Start | Length | Start sector | End sector
---------------------------------------------------------
1 | 0:00.00 | 3:55.14 | 0 | 17638
2 | 3:55.14 | 1:43.05 | 17639 | 25368
3 | 5:38.19 | 1:41.56 | 25369 | 32999
4 | 7:20.00 | 1:54.69 | 33000 | 41618
5 | 9:14.69 | 1:26.44 | 41619 | 48112
6 | 10:41.38 | 2:02.39 | 48113 | 57301
7 | 12:44.02 | 1:28.10 | 57302 | 63911
8 | 14:12.12 | 2:37.49 | 63912 | 75735
9 | 16:49.61 | 2:35.66 | 75736 | 87426
10 | 19:25.52 | 1:34.23 | 87427 | 94499
11 | 21:00.00 | 0:59.38 | 94500 | 98962
12 | 21:59.38 | 2:59.58 | 98963 | 112445
13 | 24:59.21 | 2:54.05 | 112446 | 125500
14 | 27:53.26 | 3:29.49 | 125501 | 141224
15 | 31:23.00 | 2:13.00 | 141225 | 151199
16 | 33:36.00 | 1:17.00 | 151200 | 156974
17 | 34:53.00 | 3:31.55 | 156975 | 172854
18 | 38:24.55 | 3:00.20 | 172855 | 186374
19 | 41:25.00 | 1:22.00 | 186375 | 192524
20 | 42:47.00 | 2:18.69 | 192525 | 202943
21 | 45:05.69 | 1:17.06 | 202944 | 208724
Range status and errors
Selected range
Filename D:\EAC\Albéniz - Pepita Jiménez, De Eusebio CD2.wav
Peak level 98.4 %
Extraction speed 4.3 X
Range quality 100.0 %
Test CRC 649B649E
Copy CRC 649B649E
Copy OK
No errors occurred
AccurateRip summary
Track 1 accurately ripped (confidence 2) [9A1533DC] (AR v2)
Track 2 accurately ripped (confidence 2) [D48A00F0] (AR v2)
Track 3 accurately ripped (confidence 2) [5B33FAE2] (AR v2)
Track 4 accurately ripped (confidence 2) [D41D8886] (AR v2)
Track 5 accurately ripped (confidence 2) [E34E93D6] (AR v2)
Track 6 accurately ripped (confidence 2) [7F6242EB] (AR v2)
Track 7 accurately ripped (confidence 2) [71D22405] (AR v2)
Track 8 accurately ripped (confidence 2) [2B71D79D] (AR v2)
Track 9 accurately ripped (confidence 2) [4FD9FD95] (AR v2)
Track 10 accurately ripped (confidence 2) [04734E5D] (AR v2)
Track 11 accurately ripped (confidence 2) [D5476A7E] (AR v2)
Track 12 accurately ripped (confidence 2) [A88A8359] (AR v2)
Track 13 accurately ripped (confidence 2) [07C73631] (AR v2)
Track 14 accurately ripped (confidence 2) [2798F372] (AR v2)
Track 15 accurately ripped (confidence 2) [88D28455] (AR v2)
Track 16 accurately ripped (confidence 2) [23082B69] (AR v2)
Track 17 accurately ripped (confidence 2) [29AA9BB7] (AR v2)
Track 18 accurately ripped (confidence 2) [45EFD3EE] (AR v2)
Track 19 accurately ripped (confidence 2) [A783FE30] (AR v2)
Track 20 accurately ripped (confidence 2) [A817BA76] (AR v2)
Track 21 accurately ripped (confidence 2) [52C10B21] (AR v2)
All tracks accurately ripped
End of status report
---- CUETools DB Plugin V2.1.6
[CTDB TOCID: tk98nYopBmQCqbVOWHR1Wu9gsT0-] found
Submit result: unrecognized or virtual drive
Track | CTDB Status
1 | (3/3) Accurately ripped
2 | (3/3) Accurately ripped
3 | (3/3) Accurately ripped
4 | (3/3) Accurately ripped
5 | (3/3) Accurately ripped
6 | (3/3) Accurately ripped
7 | (3/3) Accurately ripped
8 | (3/3) Accurately ripped
9 | (3/3) Accurately ripped
10 | (3/3) Accurately ripped
11 | (3/3) Accurately ripped
12 | (3/3) Accurately ripped
13 | (3/3) Accurately ripped
14 | (3/3) Accurately ripped
15 | (3/3) Accurately ripped
16 | (3/3) Accurately ripped
17 | (3/3) Accurately ripped
18 | (3/3) Accurately ripped
19 | (3/3) Accurately ripped
20 | (3/3) Accurately ripped
21 | (3/3) Accurately ripped
==== Log checksum E3EF8731770CE0CE3A1B7BBEA074BEE7CA2CE23A900CB2DACAC6C177A9897119 ====

Содержание индексной карты (.CUE)

CD1

REM GENRE Opera
REM DATE 2006
REM DISCID D30A6D20
REM COMMENT "ExactAudioCopy v1.0b6"
CATALOG 0028947762355
PERFORMER "Domingo, Vaness, Henschel - Orqueste e Coro Comunidad de Madrid, De Eusebio"
TITLE "Albéniz - Pepita Jiménez, De Eusebio CD1"
FILE "Albéniz - Pepita Jiménez, De Eusebio CD1.ape" WAVE
TRACK 01 AUDIO
TITLE "Donna Pepita!..."
PERFORMER "Domingo, Vaness, Henschel - Orqueste e Coro Comunidad de Madrid, De Eusebio"
ISRC DEN960432801
INDEX 01 00:00:00
TRACK 02 AUDIO
TITLE "Pepita loves my Luis?..."
PERFORMER "Domingo, Vaness, Henschel - Orqueste e Coro Comunidad de Madrid, De Eusebio"
ISRC DEN960432802
INDEX 01 01:56:54
TRACK 03 AUDIO
TITLE "Who eats a sour banana..."
PERFORMER "Domingo, Vaness, Henschel - Orqueste e Coro Comunidad de Madrid, De Eusebio"
ISRC DEN960432803
INDEX 01 03:26:28
TRACK 04 AUDIO
TITLE "He promised her..."
PERFORMER "Domingo, Vaness, Henschel - Orqueste e Coro Comunidad de Madrid, De Eusebio"
ISRC DEN960432804
INDEX 01 04:46:38
TRACK 05 AUDIO
TITLE "You've pulled the blind..."
PERFORMER "Domingo, Vaness, Henschel - Orqueste e Coro Comunidad de Madrid, De Eusebio"
ISRC DEN960432805
INDEX 01 05:51:24
TRACK 06 AUDIO
TITLE "So here's the shrine...."
PERFORMER "Domingo, Vaness, Henschel - Orqueste e Coro Comunidad de Madrid, De Eusebio"
ISRC DEN960432806
INDEX 01 07:54:27
TRACK 07 AUDIO
TITLE "Ssh! Pepita!..."
PERFORMER "Domingo, Vaness, Henschel - Orqueste e Coro Comunidad de Madrid, De Eusebio"
ISRC DEN960432807
INDEX 01 09:13:22
TRACK 08 AUDIO
TITLE "Don Pedro! Always so handy!..."
PERFORMER "Domingo, Vaness, Henschel - Orqueste e Coro Comunidad de Madrid, De Eusebio"
ISRC DEN960432808
INDEX 01 10:30:40
TRACK 09 AUDIO
TITLE "Come, come, my little acolyte!..."
PERFORMER "Domingo, Vaness, Henschel - Orqueste e Coro Comunidad de Madrid, De Eusebio"
ISRC DEN960432809
INDEX 01 11:33:56
TRACK 10 AUDIO
TITLE "Far better live on acolyte!..."
PERFORMER "Domingo, Vaness, Henschel - Orqueste e Coro Comunidad de Madrid, De Eusebio"
ISRC DEN960432810
INDEX 01 12:27:18
TRACK 11 AUDIO
TITLE "Well, have you said goodbye..."
PERFORMER "Domingo, Vaness, Henschel - Orqueste e Coro Comunidad de Madrid, De Eusebio"
ISRC DEN960432811
INDEX 01 13:17:62
TRACK 12 AUDIO
TITLE "My child, your hand is cold!..."
PERFORMER "Domingo, Vaness, Henschel - Orqueste e Coro Comunidad de Madrid, De Eusebio"
ISRC DEN960432812
INDEX 01 14:18:09
TRACK 13 AUDIO
TITLE "Do you remember, one day..."
PERFORMER "Domingo, Vaness, Henschel - Orqueste e Coro Comunidad de Madrid, De Eusebio"
ISRC DEN960432813
INDEX 01 15:32:74
TRACK 14 AUDIO
TITLE "Yet take courage!..."
PERFORMER "Domingo, Vaness, Henschel - Orqueste e Coro Comunidad de Madrid, De Eusebio"
ISRC DEN960432814
INDEX 01 17:45:74
TRACK 15 AUDIO
TITLE "Holy marriage!..."
PERFORMER "Domingo, Vaness, Henschel - Orqueste e Coro Comunidad de Madrid, De Eusebio"
ISRC DEN960432815
INDEX 01 19:15:09
TRACK 16 AUDIO
TITLE "Ah no!... He loves Pepita!..."
PERFORMER "Domingo, Vaness, Henschel - Orqueste e Coro Comunidad de Madrid, De Eusebio"
ISRC DEN960432816
INDEX 01 20:55:48
TRACK 17 AUDIO
TITLE "And I'm so wicked..."
PERFORMER "Domingo, Vaness, Henschel - Orqueste e Coro Comunidad de Madrid, De Eusebio"
ISRC DEN960432817
INDEX 01 22:32:69
TRACK 18 AUDIO
TITLE "Your words serene..."
PERFORMER "Domingo, Vaness, Henschel - Orqueste e Coro Comunidad de Madrid, De Eusebio"
ISRC DEN960432818
INDEX 01 24:22:10
TRACK 19 AUDIO
TITLE "Farewell, my child!..."
PERFORMER "Domingo, Vaness, Henschel - Orqueste e Coro Comunidad de Madrid, De Eusebio"
ISRC DEN960432819
INDEX 01 25:31:32
TRACK 20 AUDIO
TITLE "This is the way with the drone..."
PERFORMER "Domingo, Vaness, Henschel - Orqueste e Coro Comunidad de Madrid, De Eusebio"
ISRC DEN960432820
INDEX 01 26:26:45
TRACK 21 AUDIO
TITLE "The rev'rend father has admonish'd me!..."
PERFORMER "Domingo, Vaness, Henschel - Orqueste e Coro Comunidad de Madrid, De Eusebio"
ISRC DEN960432821
INDEX 01 27:49:32
TRACK 22 AUDIO
TITLE "Ah! Mother of sorrows..."
PERFORMER "Domingo, Vaness, Henschel - Orqueste e Coro Comunidad de Madrid, De Eusebio"
ISRC DEN960432822
INDEX 01 29:46:18
TRACK 23 AUDIO
TITLE "I've come to bid farewell..."
PERFORMER "Domingo, Vaness, Henschel - Orqueste e Coro Comunidad de Madrid, De Eusebio"
ISRC DEN960432823
INDEX 01 30:27:31
TRACK 24 AUDIO
TITLE "Away into the wilderness!..."
PERFORMER "Domingo, Vaness, Henschel - Orqueste e Coro Comunidad de Madrid, De Eusebio"
ISRC DEN960432823
INDEX 01 34:09:38
TRACK 25 AUDIO
TITLE "This is really outrageous!..."
PERFORMER "Domingo, Vaness, Henschel - Orqueste e Coro Comunidad de Madrid, De Eusebio"
ISRC DEN960432825
INDEX 01 35:39:19
TRACK 26 AUDIO
TITLE "The devil take your consolation!..."
PERFORMER "Domingo, Vaness, Henschel - Orqueste e Coro Comunidad de Madrid, De Eusebio"
ISRC DEN960432826
INDEX 01 36:18:35
TRACK 27 AUDIO
TITLE "I cannot do your pleasure!..."
PERFORMER "Domingo, Vaness, Henschel - Orqueste e Coro Comunidad de Madrid, De Eusebio"
ISRC DEN960432827
INDEX 01 37:20:30
TRACK 28 AUDIO
TITLE "Take heart!..."
PERFORMER "Domingo, Vaness, Henschel - Orqueste e Coro Comunidad de Madrid, De Eusebio"
ISRC DEN960432827
INDEX 01 38:04:17
TRACK 29 AUDIO
TITLE "O'Tona, you're a prophet!..."
PERFORMER "Domingo, Vaness, Henschel - Orqueste e Coro Comunidad de Madrid, De Eusebio"
ISRC DEN960432828
INDEX 01 39:36:18
TRACK 30 AUDIO
TITLE "Yes, Pepita's very sly!..."
PERFORMER "Domingo, Vaness, Henschel - Orqueste e Coro Comunidad de Madrid, De Eusebio"
ISRC DEN960432830
INDEX 01 40:39:49
TRACK 31 AUDIO
TITLE "When but sixteen, Pepita..."
PERFORMER "Domingo, Vaness, Henschel - Orqueste e Coro Comunidad de Madrid, De Eusebio"
ISRC DEN960432831
INDEX 01 42:01:59
TRACK 32 AUDIO
TITLE "I've come to beg your pardon..."
PERFORMER "Domingo, Vaness, Henschel - Orqueste e Coro Comunidad de Madrid, De Eusebio"
ISRC DEN960432832
INDEX 01 43:34:00

CD2

REM GENRE Opera
REM DATE 2006
REM DISCID 160ADF15
REM COMMENT "ExactAudioCopy v1.0b6"
CATALOG 0028947762362
PERFORMER "Domingo, Vaness, Henschel - Orqueste e Coro Comunidad de Madrid, De Eusebio"
TITLE "Albéniz - Pepita Jiménez, De Eusebio CD2"
FILE "Albéniz - Pepita Jiménez, De Eusebio CD2.ape" WAVE
TRACK 01 AUDIO
TITLE "Tableau I. Prelude"
PERFORMER "Domingo, Vaness, Henschel - Orqueste e Coro Comunidad de Madrid, De Eusebio"
ISRC DEN960432833
INDEX 01 00:00:00
TRACK 02 AUDIO
TITLE "All is ready!..."
PERFORMER "Domingo, Vaness, Henschel - Orqueste e Coro Comunidad de Madrid, De Eusebio"
ISRC DEN960432834
INDEX 01 03:55:14
TRACK 03 AUDIO
TITLE "'Tona!... How gladly...!"
PERFORMER "Domingo, Vaness, Henschel - Orqueste e Coro Comunidad de Madrid, De Eusebio"
ISRC DEN960432835
INDEX 01 05:38:19
TRACK 04 AUDIO
TITLE "Heigh ho! Who preaches Love..."
PERFORMER "Domingo, Vaness, Henschel - Orqueste e Coro Comunidad de Madrid, De Eusebio"
ISRC DEN960432836
INDEX 01 07:20:00
TRACK 05 AUDIO
TITLE "Who teaches Love was made...!"
PERFORMER "Domingo, Vaness, Henschel - Orqueste e Coro Comunidad de Madrid, De Eusebio"
ISRC DEN960432836
INDEX 01 09:14:69
TRACK 06 AUDIO
TITLE "Pepita!..."
PERFORMER "Domingo, Vaness, Henschel - Orqueste e Coro Comunidad de Madrid, De Eusebio"
ISRC DEN960432837
INDEX 01 10:41:38
TRACK 07 AUDIO
TITLE "Yes, by their innocence...!"
PERFORMER "Domingo, Vaness, Henschel - Orqueste e Coro Comunidad de Madrid, De Eusebio"
ISRC DEN960432839
INDEX 01 12:44:02
TRACK 08 AUDIO
TITLE "Born into common humility..."
PERFORMER "Domingo, Vaness, Henschel - Orqueste e Coro Comunidad de Madrid, De Eusebio"
ISRC DEN960432840
INDEX 01 14:12:12
TRACK 09 AUDIO
TITLE "Ballet"
PERFORMER "Domingo, Vaness, Henschel - Orqueste e Coro Comunidad de Madrid, De Eusebio"
ISRC DEN960432841
INDEX 01 16:49:61
TRACK 10 AUDIO
TITLE "Dance, little darlings..."
PERFORMER "Domingo, Vaness, Henschel - Orqueste e Coro Comunidad de Madrid, De Eusebio"
ISRC DEN960432841
INDEX 01 19:25:52
TRACK 11 AUDIO
TITLE "Thank you, my friends!..."
PERFORMER "Domingo, Vaness, Henschel - Orqueste e Coro Comunidad de Madrid, De Eusebio"
ISRC DEN960432843
INDEX 01 21:00:00
TRACK 12 AUDIO
TITLE "Forgive me! 'Tis best I retire, to rest..."
PERFORMER "Domingo, Vaness, Henschel - Orqueste e Coro Comunidad de Madrid, De Eusebio"
ISRC DEN960432844
INDEX 01 21:59:38
TRACK 13 AUDIO
TITLE "Tableau II. Interlude"
PERFORMER "Domingo, Vaness, Henschel - Orqueste e Coro Comunidad de Madrid, De Eusebio"
ISRC DEN960432845
INDEX 01 24:59:21
TRACK 14 AUDIO
TITLE "Love moves by night!..."
PERFORMER "Domingo, Vaness, Henschel - Orqueste e Coro Comunidad de Madrid, De Eusebio"
ISRC DEN960432846
INDEX 01 27:53:26
TRACK 15 AUDIO
TITLE "Love moves by night!..."
PERFORMER "Domingo, Vaness, Henschel - Orqueste e Coro Comunidad de Madrid, De Eusebio"
ISRC DEN960432846
INDEX 01 31:23:00
TRACK 16 AUDIO
TITLE "Oh! Luis, this last sad meeting..."
PERFORMER "Domingo, Vaness, Henschel - Orqueste e Coro Comunidad de Madrid, De Eusebio"
ISRC DEN960432848
INDEX 01 33:36:00
TRACK 17 AUDIO
TITLE "To gather sweet flowers I stole away!..."
PERFORMER "Domingo, Vaness, Henschel - Orqueste e Coro Comunidad de Madrid, De Eusebio"
ISRC DEN960432849
INDEX 01 34:53:00
TRACK 18 AUDIO
TITLE "Sweet friend! No earthly union...!"
PERFORMER "Domingo, Vaness, Henschel - Orqueste e Coro Comunidad de Madrid, De Eusebio"
ISRC DEN960432850
INDEX 01 38:24:55
TRACK 19 AUDIO
TITLE "My God! I cannot bear it!..."
PERFORMER "Domingo, Vaness, Henschel - Orqueste e Coro Comunidad de Madrid, De Eusebio"
ISRC DEN960432851
INDEX 01 41:25:00
TRACK 20 AUDIO
TITLE "Go! bear my latest breath...!"
PERFORMER "Domingo, Vaness, Henschel - Orqueste e Coro Comunidad de Madrid, De Eusebio"
ISRC DEN960432852
INDEX 01 42:47:00
TRACK 21 AUDIO
TITLE "Farewell! Farewell forever!..."
PERFORMER "Domingo, Vaness, Henschel - Orqueste e Coro Comunidad de Madrid, De Eusebio"
ISRC DEN960432853
INDEX 01 45:05:69
Доп. информация:
Pepita Jiménez is a lyric comedy or comic opera with music written by the Spanish composer Isaac Albéniz. The original opera was written in one act and used an English libretto by Albéniz's patron and collaborator, the Englishman Francis Money-Coutts, which is based on the novel of the same name by Juan Valera. The opera was later adapted several times, first by the composer and later by others, into numerous languages and different constructs, including both a two-act version and a three-act version.
Synopsis
Time: Mid-19th century
Setting: A village in Andalusia
The story opens on a day in May celebrating the feast of the Infant Saviour. Pepita Jiménez, a 19-year-old girl, has recently been widowed. She had been married to her 80-year-old uncle Don Gumersindo, a rich money-lender, since she was 16 and is now in possession of his large fortune. Pepita is sought by many suitors, including Count Genazahar, who owes her money, and Don Pedro de Vargas, a highly respected and prosperous member of the community. Pepita, however, has eyes only for Don Pedro's son, Don Luis, a handsome young seminarian who flirts with her shamelessly. She confesses her love to the town's vicar, and he in turn urges her to forget about him as he is supposed to pursue a higher calling.
Meanwhile, Pepita's feisty but loving maid, Antoñona, reveals to Don Pedro her mistress's love for his son, while simultaneously chiding him for raising such a flirt. Though at first surprised by this revelation, Don Pedro swallows his own feelings for Pepita and decides to help along the young couple's romance with the aid of Antoñona. Pepita returns from her meeting with the vicar and meets Don Luis, whom she has resolved to bid follow his vocation. Likewise, Don Luis has by now realised that he loves Pepita, but resolves to resist temptation. Just as the two are about to part forever, Antoñona interrupts and makes Don Luis promise to see Pepita once more before he departs town.
After leaving Pepita, Don Luis overhears Count Genazahar, who has been recently rebuffed by Pepita, making insulting remarks about her to two officers. Luis becomes incredibly angry and he challenges the count to a duel. The count is wounded in the fight and Luis is victorious. When Don Luis again sees Pepita, she cannot keep in her true feelings. Frantic, she informs him that her life will be forfeit for his calling, and she locks herself in her room. Don Luis, fearing her suicide, breaks into Pepita's room and the two unite in an embrace to the happiness of Antoñona.



Показать сообщения:    

Текущее время: 07-Дек 21:23

Часовой пояс: UTC + 3


Вы не можете начинать темы
Вы не можете отвечать на сообщения
Вы не можете редактировать свои сообщения
Вы не можете удалять свои сообщения
Вы не можете голосовать в опросах
Вы не можете прикреплять файлы к сообщениям
Вы не можете скачивать файлы