(Opera, Vocal), Jonas Kaufmann - The Verdi Album (Tenor Arias from Aida, Il Trovatore, Don Carlo, La Forza del destino, Un Ballo in Maschera, Rigoletto, I Masnadieri, Simon Boccanegra, Luisa Miller, Otello, Macbeth) - 2013,FLAC (image+.cue), lossless


 

[Цитировать]

Jonas Kaufmann - The Verdi Album (Tenor Arias from Aida, Il Trovatore, Don Carlo, La Forza del destino, Un Ballo in Maschera, Rigoletto, I Masnadieri, Simon Boccanegra, Luisa Miller, Otello, Macbeth)
Жанр: Opera, Vocal
Год издания диска: 2013
Лейбл: Sony Classical
Страна-производитель: EU
Аудиокодек: FLAC
Тип рипа: image+.cue
Битрейт аудио: lossless
Продолжительность: 73:30
Источник: релизер (gor)
Треклист:
Operas by Giuseppe Verdi:
01. Rigoletto - Atto III, Canzone: "La donna è mobile" [02:21];
02. Aida - Atto I, Scena e romanza: "Se quel guerrier io fossi!... Celeste Aida" [04:43];
03. Un ballo in maschera - Atto I, Canzone: "Di' tu se fedele" (feat. Coro del Teatro Municipale di Piacenza) [03:29];
04. Un Ballo in Maschera - Atto III, Scena e romanza: "Forse la soglia attinse... Ma se m'è forza perderti" [05:41];
05. Il Trovatore - Parte III, Scena ed aria: "Ah! sì, ben mio... Di quella pira" (feat. Erika Grimaldi, soprano, as Leonora, Giovanni Gregnanin, tenor, as Ruiz, Coro del Teatro Municipale di Piacenza) [07:52];
06. Luisa Miller - Atto II, Scena ed aria: "Oh! fede negar potessi... Quando le sere al placido" [06:21];
07. Simon Boccanegra - Atto II, Scena ed aria: "O inferno! Amelia qui!... Sento avvampar nell'anima... Cielo pietoso, rendila" [05:56];
08. Don Carlo - Atto II, Scena e duetto: "È lui! desso, l'Infante!... Dio, che nell'alma infondere" (feat. Franco Vassallo, baritone, as Rodrigo and Daniele Cusari, bass, as un frate, Coro del Teatro Municipale di Piacenza) [08:26];
09. La Forza del Destino - Atto III, Scena e romanza: "La vita è inferno all'infelice...O tu, che in seno agli angeli" [10:41];
10. I Masnadieri - Atto III, Scena 2: "Destatevi, o pietre... Giuri ognun questo canuto" (feat. Coro del Teatro Municipale di Piacenza) [04:25];
11. Otello - Atto III : "Dio! mi potevi scagliar" (feat. Franco Vassallo, baritone, as Jago) [05:14];
12. Otello - Atto IV: "Niun mi tema" [06:09];
13. Macbeth - Atto VI: ''O, figli, o figli miei!... Ah, la paterna mano'' [04:12].
Исполнители:
Jonas Kaufmann tenor,
Franco Vassallo baritone (8, 11),
Daniele Cusari bass (8),
Erika Grimaldi soprano (5),
Giovanni Gregnanin tenor (5).
Coro del Teatro Municipale di Piacenza,
Orchestra dell'Opera di Parma,
Pier Giorgio Morandi, Conductor.
Recorded at Auditorium Niccolo Paganini in Parma, March 13-19, 2013.

Лог создания рипа

Exact Audio Copy V0.99 prebeta 5 from 4. May 2009
Отчёт EAC об извлечении, выполненном 15. апреля 2015, 13:18
Jonas Kaufmann / The Verdi Album
Дисковод: ASUS SBC-06D1S-U Adapter: 3 ID: 0
Режим чтения : Достоверность
Использование точного потока : Да
Отключение кэша аудио : Да
Использование указателей C2 : Нет
Коррекция смещения при чтении : 102
Способность читать области Lead-in и Lead-out : Нет
Заполнение пропущенных сэмплов тишиной : Да
Удаление блоков с тишиной в начале и конце : Нет
При вычислениях CRC использовались нулевые сэмплы : Да
Интерфейс : Встроенный Win32-интерфейс для Win NT/2000
Выходной формат : Пользовательский кодировщик
Выбранный битрейт : 768 kBit/s
Качество : Высокий
Добавление ID3-тэга : Нет
Утилита сжатия : C:\Program Files (x86)\Exact Audio Copy\Flac\flac.exe
Дополнительные параметры : -6 -V -T "ARTIST=%a" -T "TITLE=%t" -T "ALBUM=%g" -T "DATE=%y" -T "TRACKNUMBER=%n" -T "GENRE=%m" -T "COMMENT=%e" %s -o %d
TOC извлечённого CD
Трек | Старт | Длительность | Начальный сектор | Конечный сектор
---------------------------------------------------------------------
1 | 0:00.00 | 2:21.66 | 0 | 10640
2 | 2:21.66 | 4:43.11 | 10641 | 31876
3 | 7:05.02 | 3:29.55 | 31877 | 47606
4 | 10:34.57 | 5:41.73 | 47607 | 73254
5 | 16:16.55 | 7:52.36 | 73255 | 108690
6 | 24:09.16 | 6:21.04 | 108691 | 137269
7 | 30:30.20 | 5:56.31 | 137270 | 164000
8 | 36:26.51 | 8:26.63 | 164001 | 202013
9 | 44:53.39 | 10:41.19 | 202014 | 250107
10 | 55:34.58 | 4:25.69 | 250108 | 270051
11 | 60:00.52 | 5:14.01 | 270052 | 293602
12 | 65:14.53 | 6:09.64 | 293603 | 321341
Характеристики диапазона извлечения и сообщения об ошибках
Выбранный диапазон
Имя файла F:\EAC_AdvantiX\PART2\NEW\2015\Jonas Kaufmann - The Verdi Album\Jonas Kaufmann - The Verdi Album.wav
Пиковый уровень 97.2 %
Качество диапазона 100.0 %
CRC копии A74777AB
Копирование... OK
Ошибок не произошло
AccurateRip: сводка
Трек 1 точность не определена (достоверность 2) [37CB3720], AccurateRip вернул [BDEBD7BC]
Трек 2 точность не определена (достоверность 2) [83C1821C], AccurateRip вернул [5349F2CF]
Трек 3 точность не определена (достоверность 2) [FFEEA08F], AccurateRip вернул [F85B5900]
Трек 4 точность не определена (достоверность 2) [A7A28F8A], AccurateRip вернул [7CF04950]
Трек 5 точность не определена (достоверность 2) [3F794F39], AccurateRip вернул [0173A7C6]
Трек 6 точность не определена (достоверность 2) [4D2E3AB7], AccurateRip вернул [93FB35FD]
Трек 7 точность не определена (достоверность 2) [F68FB0F0], AccurateRip вернул [65132BC1]
Трек 8 точность не определена (достоверность 2) [05E2ECDC], AccurateRip вернул [219F5921]
Трек 9 точность не определена (достоверность 2) [43989FBB], AccurateRip вернул [1A92BE91]
Трек 10 точность не определена (достоверность 2) [1E40F3FA], AccurateRip вернул [0650EA12]
Трек 11 точность не определена (достоверность 2) [4CA5B366], AccurateRip вернул [7F55D3B6]
Трек 12 точность не определена (достоверность 2) [245C3762], AccurateRip вернул [EA187539]
Ни один трек не прошёл проверки на точность
В вашей базе может быть иной вариант штамповки диска
Конец отчёта

Содержание индексной карты (.CUE)

REM GENRE Classical
REM DATE 2013
REM DISCID AD10BC0C
REM COMMENT "ExactAudioCopy v0.99pb5"
CATALOG 0887654920423
PERFORMER "Jonas Kaufmann"
TITLE "The Verdi Album"
FILE "Jonas Kaufmann - The Verdi Album.flac" WAVE
TRACK 01 AUDIO
TITLE "Rigoletto - La Donna и Mobile (3.Akt)"
PERFORMER "Jonas Kaufmann"
ISRC USSM11303312
INDEX 01 00:00:00
TRACK 02 AUDIO
TITLE "Aida - Se Quel Guerrier Io Fossi! ...Celeste Aida (1.Akt)"
PERFORMER "Jonas Kaufmann"
ISRC USSM11303313
INDEX 01 02:21:66
TRACK 03 AUDIO
TITLE "Un Ballo In Maschera - Di' Tu Se Fedele (1.Akt)"
PERFORMER "Jonas Kaufmann"
ISRC USSM11303314
INDEX 01 07:05:02
TRACK 04 AUDIO
TITLE "Un Ballo In Maschera - Forse La Soglia Attinse ...Ma Se M'и Forza Perderti (3..."
PERFORMER "Jonas Kaufmann"
ISRC USSM11303315
INDEX 01 10:34:57
TRACK 05 AUDIO
TITLE "Il Trovatore - Ah, Si, Ben Mio ...Di Wuella Pira (3.Akt)"
PERFORMER "Jonas Kaufmann"
ISRC USSM11303316
INDEX 01 16:16:55
TRACK 06 AUDIO
TITLE "Luisa Miller - Oh! Fede Negar Potessi ...Quando Le Sere Al Placido (2.Akt)"
PERFORMER "Jonas Kaufmann"
ISRC USSM11303317
INDEX 01 24:09:16
TRACK 07 AUDIO
TITLE "Simon Boccanegra - O Inferno! Amelia Qui! ...Sento Avvampar Nell' Anima ...Ci..."
PERFORMER "Jonas Kaufmann"
ISRC USSM11303318
INDEX 01 30:30:20
TRACK 08 AUDIO
TITLE "Don Carlo - E Lui! Desso, L'infante! ...Dio, Che Nell'alma Inondere (2.Akt)"
PERFORMER "Jonas Kaufmann"
ISRC USSM11303319
INDEX 01 36:26:51
TRACK 09 AUDIO
TITLE "La Forca Del Destino - La Vita й Inferno All' Infelice ...O Tu, Che In Seno A..."
PERFORMER "Jonas Kaufmann"
ISRC USSM11303319
INDEX 01 44:53:39
TRACK 10 AUDIO
TITLE "I Masnadieri - Destatevi, O Pietre ...Giuri Ognun Questo Canuto (3.Akt)"
PERFORMER "Jonas Kaufmann"
ISRC USSM11303321
INDEX 01 55:34:58
TRACK 11 AUDIO
TITLE "Otello - Dio! Mi Potevi Scagliar (3.Akt) "
PERFORMER "Jonas Kaufmann"
ISRC USSM11303322
INDEX 01 60:00:52
TRACK 12 AUDIO
TITLE "Otello - Niun Mi Tema (4. Akt)"
PERFORMER "Jonas Kaufmann"
ISRC USSM11303323
INDEX 01 65:14:53



Показать сообщения:    

Текущее время: 07-Дек 23:18

Часовой пояс: UTC + 3


Вы не можете начинать темы
Вы не можете отвечать на сообщения
Вы не можете редактировать свои сообщения
Вы не можете удалять свои сообщения
Вы не можете голосовать в опросах
Вы не можете прикреплять файлы к сообщениям
Вы не можете скачивать файлы