(Opera) Gioachino Rossini - Il Barbiere di Siviglia / Джоаккино Россини - Севильский цирюльник (Riccardo Chailly; Leo Nucci, Marilyn Horne, Enzo Dara, Samuel Ramey, Paolo Barbacini, Simone Alaimo), 1982 - Studio / 1990, FLAC (tracks+.cue), lossless


 

[Цитировать]

Gioachino Rossini - Il Barbiere di Siviglia / Джоаккино Россини - Севильский цирюльник (Riccardo Chailly; Leo Nucci, Marilyn Horne, Enzo Dara, Samuel Ramey, Paolo Barbacini, Simone Alaimo)
Жанр: Opera
Страна-производитель диска: CША
Год издания диска: 1990
Издатель (лейбл): Sony Classical/Fonit Cetra
Дата записи: 1982
Аудиокодек: FLAC
Тип рипа: tracks+.cue
Битрейт аудио: lossless
Продолжительность: 155:37
Источник: релизер (Guillermo)
Исполнители:
Figaro - Leo Nucci,
Rosina - Marilyn Horne,
Bartolo - Enzo Dara,
Basilio - Samuel Ramey,
Il Conte d'Almaviva - Paolo Barbacini,
Fiorello - Simone Alaimo.
Riccardo Chailly, Conductor,
Orchestra and Chorus of Teatro alla Scala.
Recorded at Centro Telecinematografico, Milan, Italy, January 2, 1982 - January 18, 1982.

Лог создания рипаЛог создания рипа CD 1

Exact Audio Copy V1.0 beta 3 from 29. August 2011
EAC extraction logfile from 8. September 2015, 19:34
Gioachino Rossini / Unknown CD for MusicBrainz and FreeDB
Used drive : HL-DT-STDVDRAM GH24NSC0 Adapter: 3 ID: 0
Read mode : Secure
Utilize accurate stream : Yes
Defeat audio cache : Yes
Make use of C2 pointers : No
Read offset correction : 6
Overread into Lead-In and Lead-Out : No
Fill up missing offset samples with silence : Yes
Delete leading and trailing silent blocks : No
Null samples used in CRC calculations : Yes
Used interface : Native Win32 interface for Win NT & 2000
Gap handling : Appended to previous track
Used output format : User Defined Encoder
Selected bitrate : 768 kBit/s
Quality : High
Add ID3 tag : No
Command line compressor : C:\Program Files (x86)\Exact Audio Copy\FLAC\FLAC.EXE
Additional command line options : -8 -V -T "ARTIST=%artist%" -T "TITLE=%title%" -T "ALBUM=%albumtitle%" -T "DATE=%year%" -T "TRACKNUMBER=%tracknr%" -T "GENRE=%genre%" -T "PERFORMER=%albuminterpret%" -T "COMPOSER=%composer%" %haslyrics%--tag-from-file=LYRICS="%lyricsfile%"%haslyrics% -T "ALBUMARTIST=%albumartist%" -T "DISCNUMBER=%cdnumber%" -T "TOTALDISCS=%totalcds%" -T "TOTALTRACKS=%numtracks%" -T "COMMENT=%comment%" %source% -o %dest%
TOC of the extracted CD
Track | Start | Length | Start sector | End sector
---------------------------------------------------------
1 | 0:00.00 | 7:10.37 | 0 | 32286
2 | 7:10.37 | 2:57.20 | 32287 | 45581
3 | 10:07.57 | 4:24.70 | 45582 | 65451
4 | 14:32.52 | 2:57.25 | 65452 | 78751
5 | 17:30.02 | 1:17.60 | 78752 | 84586
6 | 18:47.62 | 4:17.35 | 84587 | 103896
7 | 23:05.22 | 7:04.33 | 103897 | 135729
8 | 30:09.55 | 2:46.57 | 135730 | 148236
9 | 32:56.37 | 1:06.23 | 148237 | 153209
10 | 34:02.60 | 8:04.17 | 153210 | 189526
11 | 42:07.02 | 0:31.03 | 189527 | 191854
12 | 42:38.05 | 6:10.70 | 191855 | 219674
Track 1
Filename f:\Users\Guillermo\Desktop\EAC convertidos\01 Sinfonia.wav
Pre-gap length 0:00:02.00
Peak level 88.7 %
Extraction speed 1.5 X
Track quality 99.9 %
Test CRC E18B1BF1
Copy CRC E18B1BF1
Copy OK
Track 2
Filename f:\Users\Guillermo\Desktop\EAC convertidos\02 Piano, pianissimo (Fiorello , chorus, Conte).wav
Pre-gap length 0:00:06.49
Peak level 39.7 %
Extraction speed 1.6 X
Track quality 100.0 %
Test CRC 785F6709
Copy CRC 785F6709
Copy OK
Track 3
Filename f:\Users\Guillermo\Desktop\EAC convertidos\03 Ecco ridente in cielo (Conte).wav
Peak level 79.1 %
Extraction speed 1.9 X
Track quality 100.0 %
Test CRC F60C8528
Copy CRC F60C8528
Copy OK
Track 4
Filename f:\Users\Guillermo\Desktop\EAC convertidos\04 Ehi, Fiorello... (Conte, Fiorello, chorus).wav
Peak level 86.6 %
Extraction speed 1.9 X
Track quality 100.0 %
Test CRC 617C5A9E
Copy CRC 617C5A9E
Copy OK
Track 5
Filename f:\Users\Guillermo\Desktop\EAC convertidos\05 Recitativo- Gente indiscreta.wav
Peak level 40.7 %
Extraction speed 1.4 X
Track quality 100.0 %
Test CRC D1FEDCE6
Copy CRC D1FEDCE6
Copy OK
Track 6
Filename f:\Users\Guillermo\Desktop\EAC convertidos\06 La ran la lera...Largo al factorum (Figaro).wav
Peak level 100.0 %
Extraction speed 1.8 X
Track quality 99.9 %
Test CRC 5C531AEC
Copy CRC 5C531AEC
Copy OK
Track 7
Filename f:\Users\Guillermo\Desktop\EAC convertidos\07 Recitativo- Ah, ah! che bella vita!....wav
Pre-gap length 0:00:00.02
Peak level 48.8 %
Extraction speed 2.2 X
Track quality 99.9 %
Test CRC 1D1377D6
Copy CRC 1D1377D6
Copy OK
Track 8
Filename f:\Users\Guillermo\Desktop\EAC convertidos\08 Se il mio nome saper voi bramate (Conte, Rosina, Figaro).wav
Pre-gap length 0:00:00.82
Peak level 44.5 %
Extraction speed 2.2 X
Track quality 100.0 %
Test CRC E8F07530
Copy CRC E8F07530
Copy OK
Track 9
Filename f:\Users\Guillermo\Desktop\EAC convertidos\09 Recitativo- Oh! cielo!.wav
Peak level 44.0 %
Extraction speed 1.6 X
Track quality 100.0 %
Test CRC CD30F962
Copy CRC CD30F962
Copy OK
Track 10
Filename f:\Users\Guillermo\Desktop\EAC convertidos\10 All'idea di quel metallo (Figaro, Conte).wav
Peak level 100.0 %
Extraction speed 2.9 X
Track quality 100.0 %
Test CRC D7BE5761
Copy CRC D7BE5761
Copy OK
Track 11
Filename f:\Users\Guillermo\Desktop\EAC convertidos\11 Recitativo- Evviva il mio padrone!.wav
Peak level 41.0 %
Extraction speed 1.2 X
Track quality 100.0 %
Test CRC B34B7E56
Copy CRC B34B7E56
Copy OK
Track 12
Filename f:\Users\Guillermo\Desktop\EAC convertidos\12 Una voce poco fa (Rosina).wav
Peak level 81.4 %
Extraction speed 2.6 X
Track quality 99.9 %
Test CRC 196B526D
Copy CRC 196B526D
Copy OK
No errors occurred
End of status report
==== Log checksum F35F8FC06CFC73075FA8E218ED90F15CF6C555D05E5B2AF362214E75A301592E ====

Лог создания рипа CD 2

Exact Audio Copy V1.0 beta 3 from 29. August 2011
EAC extraction logfile from 8. September 2015, 20:26
Rossini / Il Barbiere di Siviglia
Used drive : HL-DT-STDVDRAM GH24NSC0 Adapter: 3 ID: 0
Read mode : Secure
Utilize accurate stream : Yes
Defeat audio cache : Yes
Make use of C2 pointers : No
Read offset correction : 6
Overread into Lead-In and Lead-Out : No
Fill up missing offset samples with silence : Yes
Delete leading and trailing silent blocks : No
Null samples used in CRC calculations : Yes
Used interface : Native Win32 interface for Win NT & 2000
Gap handling : Appended to previous track
Used output format : User Defined Encoder
Selected bitrate : 768 kBit/s
Quality : High
Add ID3 tag : No
Command line compressor : C:\Program Files (x86)\Exact Audio Copy\FLAC\FLAC.EXE
Additional command line options : -8 -V -T "ARTIST=%artist%" -T "TITLE=%title%" -T "ALBUM=%albumtitle%" -T "DATE=%year%" -T "TRACKNUMBER=%tracknr%" -T "GENRE=%genre%" -T "PERFORMER=%albuminterpret%" -T "COMPOSER=%composer%" %haslyrics%--tag-from-file=LYRICS="%lyricsfile%"%haslyrics% -T "ALBUMARTIST=%albumartist%" -T "DISCNUMBER=%cdnumber%" -T "TOTALDISCS=%totalcds%" -T "TOTALTRACKS=%numtracks%" -T "COMMENT=%comment%" %source% -o %dest%
TOC of the extracted CD
Track | Start | Length | Start sector | End sector
---------------------------------------------------------
1 | 0:00.00 | 4:22.37 | 0 | 19686
2 | 4:22.37 | 4:26.23 | 19687 | 39659
3 | 8:48.60 | 3:15.47 | 39660 | 54331
4 | 12:04.32 | 4:59.63 | 54332 | 76819
5 | 17:04.20 | 1:51.20 | 76820 | 85164
6 | 18:55.40 | 5:45.32 | 85165 | 111071
7 | 24:40.72 | 0:54.58 | 111072 | 115179
8 | 25:35.55 | 10:53.47 | 115180 | 164201
9 | 36:29.27 | 4:30.30 | 164202 | 184481
10 | 40:59.57 | 4:38.03 | 184482 | 205334
Track 1
Filename f:\Users\Guillermo\Desktop\EAC convertidos\01 Atto 1 - 5b Recitativo- S , s , la vincer.wav
Pre-gap length 0:00:02.00
Peak level 56.9 %
Extraction speed 1.5 X
Track quality 100.0 %
Test CRC C3E56A9E
Copy CRC C3E56A9E
Copy OK
Track 2
Filename f:\Users\Guillermo\Desktop\EAC convertidos\02 Atto 1 - 6a La calunnia un venticello (Basilio).wav
Peak level 75.4 %
Extraction speed 1.7 X
Track quality 100.0 %
Test CRC 0B667281
Copy CRC 0B667281
Copy OK
Track 3
Filename f:\Users\Guillermo\Desktop\EAC convertidos\03 Atto 1 - 6b Recitativo- Ah! che ne dite.wav
Peak level 30.6 %
Extraction speed 1.7 X
Track quality 100.0 %
Test CRC CCE4D5E0
Copy CRC CCE4D5E0
Copy OK
Track 4
Filename f:\Users\Guillermo\Desktop\EAC convertidos\04 Atto 1 - 7a Dunque io son... tu non m'inganni (Rosina, Figaro).wav
Peak level 79.4 %
Extraction speed 2.0 X
Track quality 100.0 %
Test CRC CBCB04BD
Copy CRC CBCB04BD
Copy OK
Track 5
Filename f:\Users\Guillermo\Desktop\EAC convertidos\05 Atto 1 - 7b Recitativo- Ora mi sento meglio.wav
Peak level 77.0 %
Extraction speed 1.7 X
Track quality 100.0 %
Test CRC 707BB038
Copy CRC 707BB038
Copy OK
Track 6
Filename f:\Users\Guillermo\Desktop\EAC convertidos\06 Atto 1 - 8a A un dottor della mia sorte (Bartolo).wav
Peak level 92.5 %
Extraction speed 2.0 X
Track quality 99.9 %
Test CRC 0FABB944
Copy CRC 0FABB944
Copy OK
Track 7
Filename f:\Users\Guillermo\Desktop\EAC convertidos\07 Atto 1 - 8b Recitativo- Brontola quanto vuoi.wav
Peak level 21.7 %
Extraction speed 1.4 X
Track quality 100.0 %
Test CRC 1008388D
Copy CRC 1008388D
Copy OK
Track 8
Filename f:\Users\Guillermo\Desktop\EAC convertidos\08 Atto 1 - 9a Ehi, di casa!...buona gente!... (Conte, Bartolo, Rosina, Berta, Basilio, Figaro, chorus).wav
Peak level 100.0 %
Extraction speed 2.7 X
Track quality 100.0 %
Test CRC D1DCB13E
Copy CRC D1DCB13E
Copy OK
Track 9
Filename f:\Users\Guillermo\Desktop\EAC convertidos\09 Atto 1 - 9b Questa bestia di soldato (Conte, Bartolo, Rosina, Berta, Basilio, Figaro, Ufficiale, chorus).wav
Peak level 100.0 %
Extraction speed 2.6 X
Track quality 100.0 %
Test CRC 846AFBBA
Copy CRC 846AFBBA
Copy OK
Track 10
Filename f:\Users\Guillermo\Desktop\EAC convertidos\10 Atto 1 - 9c Mi d'esser con la testa (tutti).wav
Peak level 94.6 %
Extraction speed 2.8 X
Track quality 100.0 %
Test CRC 9D8AAE33
Copy CRC 9D8AAE33
Copy OK
No errors occurred
End of status report
==== Log checksum 47FD7CD2217DA70B2574DBC68F23086C8F1FFB6B20DD70444BEF8C2573B22F23 ====

Лог создания рипа CD 3

Exact Audio Copy V1.0 beta 3 from 29. August 2011
EAC extraction logfile from 8. September 2015, 21:32
Orchestre Symphonique / Le Barbier de Séville
Used drive : HL-DT-STDVDRAM GH24NSC0 Adapter: 3 ID: 0
Read mode : Secure
Utilize accurate stream : Yes
Defeat audio cache : Yes
Make use of C2 pointers : No
Read offset correction : 6
Overread into Lead-In and Lead-Out : No
Fill up missing offset samples with silence : Yes
Delete leading and trailing silent blocks : No
Null samples used in CRC calculations : Yes
Used interface : Native Win32 interface for Win NT & 2000
Gap handling : Appended to previous track
Used output format : User Defined Encoder
Selected bitrate : 768 kBit/s
Quality : High
Add ID3 tag : No
Command line compressor : C:\Program Files (x86)\Exact Audio Copy\FLAC\FLAC.EXE
Additional command line options : -8 -V -T "ARTIST=%artist%" -T "TITLE=%title%" -T "ALBUM=%albumtitle%" -T "DATE=%year%" -T "TRACKNUMBER=%tracknr%" -T "GENRE=%genre%" -T "PERFORMER=%albuminterpret%" -T "COMPOSER=%composer%" %haslyrics%--tag-from-file=LYRICS="%lyricsfile%"%haslyrics% -T "ALBUMARTIST=%albumartist%" -T "DISCNUMBER=%cdnumber%" -T "TOTALDISCS=%totalcds%" -T "TOTALTRACKS=%numtracks%" -T "COMMENT=%comment%" %source% -o %dest%
TOC of the extracted CD
Track | Start | Length | Start sector | End sector
---------------------------------------------------------
1 | 0:00.00 | 0:46.35 | 0 | 3484
2 | 0:46.35 | 2:41.25 | 3485 | 15584
3 | 3:27.60 | 3:09.27 | 15585 | 29786
4 | 6:37.12 | 7:03.53 | 29787 | 61564
5 | 13:40.65 | 0:31.55 | 61565 | 63944
6 | 14:12.45 | 0:51.55 | 63945 | 67824
7 | 15:04.25 | 2:40.65 | 67825 | 79889
8 | 17:45.15 | 6:02.25 | 79890 | 107064
9 | 23:47.40 | 4:11.20 | 107065 | 125909
10 | 27:58.60 | 1:07.70 | 125910 | 131004
11 | 29:06.55 | 3:05.05 | 131005 | 144884
12 | 32:11.60 | 3:24.15 | 144885 | 160199
13 | 35:36.00 | 3:02.42 | 160200 | 173891
14 | 38:38.42 | 1:41.73 | 173892 | 181539
15 | 40:20.40 | 6:28.07 | 181540 | 210646
16 | 46:48.47 | 2:20.53 | 210647 | 221199
17 | 49:09.25 | 1:11.52 | 221200 | 226576
18 | 50:21.02 | 7:12.40 | 226577 | 259016
19 | 57:33.42 | 1:40.40 | 259017 | 266556
20 | 59:14.07 | 2:17.68 | 266557 | 276899
Track 1
Filename f:\Users\Guillermo\Desktop\EAC convertidos\01 Recitativo- Ma vedi il mio destino!.wav
Pre-gap length 0:00:02.00
Peak level 62.8 %
Extraction speed 0.7 X
Track quality 100.0 %
Test CRC 8D8BDE3C
Copy CRC 8D8BDE3C
Copy OK
Track 2
Filename f:\Users\Guillermo\Desktop\EAC convertidos\02 Pace e gioia sia con voi (Conte, Bartolo).wav
Peak level 54.4 %
Extraction speed 1.3 X
Track quality 100.0 %
Test CRC FB08C2C8
Copy CRC FB08C2C8
Copy OK
Track 3
Filename f:\Users\Guillermo\Desktop\EAC convertidos\03 Recitativo- Insomma, mio signore.wav
Peak level 84.0 %
Extraction speed 1.5 X
Track quality 100.0 %
Test CRC 909F371A
Copy CRC 909F371A
Copy OK
Track 4
Filename f:\Users\Guillermo\Desktop\EAC convertidos\04 Contro un cor che accende amore (Rosina, Conte).wav
Peak level 78.2 %
Extraction speed 1.9 X
Track quality 100.0 %
Test CRC B4E2C122
Copy CRC B4E2C122
Copy OK
Track 5
Filename f:\Users\Guillermo\Desktop\EAC convertidos\05 Recitativo- Bella voce! Bravissima!.wav
Peak level 42.0 %
Extraction speed 0.8 X
Track quality 100.0 %
Test CRC 9B68D9C0
Copy CRC 9B68D9C0
Copy OK
Track 6
Filename f:\Users\Guillermo\Desktop\EAC convertidos\06 Quando mi sei vicina (Bartolo).wav
Peak level 33.5 %
Extraction speed 1.1 X
Track quality 100.0 %
Test CRC 23003D5C
Copy CRC 23003D5C
Copy OK
Track 7
Filename f:\Users\Guillermo\Desktop\EAC convertidos\07 Recitativo- Bravo, signor barbiere.wav
Peak level 76.6 %
Extraction speed 1.8 X
Track quality 100.0 %
Test CRC 64B2558F
Copy CRC 64B2558F
Copy OK
Track 8
Filename f:\Users\Guillermo\Desktop\EAC convertidos\08 Don Basilio! - (Cosa veggo!) (Rosina, Conte, Figaro, Bartolo, Basilio).wav
Peak level 76.1 %
Extraction speed 2.0 X
Track quality 99.9 %
Test CRC 3902606B
Copy CRC 3902606B
Copy OK
Track 9
Filename f:\Users\Guillermo\Desktop\EAC convertidos\09 Ors , signor Don Bartolo (Figaro, Conte, Bartolo, Rosina).wav
Peak level 100.0 %
Extraction speed 2.3 X
Track quality 100.0 %
Test CRC 8C8DEAF7
Copy CRC 8C8DEAF7
Copy OK
Track 10
Filename f:\Users\Guillermo\Desktop\EAC convertidos\10 Ah! disgraziato me! (Bartolo, Berta).wav
Peak level 70.0 %
Extraction speed 1.6 X
Track quality 100.0 %
Test CRC 6F9E45B4
Copy CRC 6F9E45B4
Copy OK
Track 11
Filename f:\Users\Guillermo\Desktop\EAC convertidos\11 Il vicchiotto cerca moglie (Berta).wav
Peak level 76.6 %
Extraction speed 2.3 X
Track quality 100.0 %
Test CRC EC675077
Copy CRC EC675077
Copy OK
Track 12
Filename f:\Users\Guillermo\Desktop\EAC convertidos\12 Recitativo- Dunque voi Don Alonso.wav
Peak level 54.1 %
Extraction speed 2.4 X
Track quality 100.0 %
Test CRC 16AE3D3D
Copy CRC 16AE3D3D
Copy OK
Track 13
Filename f:\Users\Guillermo\Desktop\EAC convertidos\13 Temporale.wav
Peak level 79.5 %
Extraction speed 2.4 X
Track quality 100.0 %
Test CRC 048A3357
Copy CRC 048A3357
Copy OK
Track 14
Filename f:\Users\Guillermo\Desktop\EAC convertidos\14 Recitativo- Alfine, eccoci qua.wav
Peak level 49.2 %
Extraction speed 1.5 X
Track quality 99.7 %
Test CRC 337F65A2
Copy CRC 337F65A2
Copy OK
Track 15
Filename f:\Users\Guillermo\Desktop\EAC convertidos\15 Ah! qual colpo inaspettato (Figaro, Rosina, Conte).wav
Peak level 84.4 %
Extraction speed 2.9 X
Track quality 100.0 %
Test CRC D98E5CE3
Copy CRC D98E5CE3
Copy OK
Track 16
Filename f:\Users\Guillermo\Desktop\EAC convertidos\16 Recitativo- Ah! disgraziati noi!.wav
Peak level 100.0 %
Extraction speed 2.4 X
Track quality 100.0 %
Test CRC BBE3C40C
Copy CRC BBE3C40C
Copy OK
Track 17
Filename f:\Users\Guillermo\Desktop\EAC convertidos\17 Recitativo- Il Conte! Ah che mai sento!.wav
Peak level 44.5 %
Extraction speed 1.3 X
Track quality 99.7 %
Test CRC 71537BBB
Copy CRC 71537BBB
Copy OK
Track 18
Filename f:\Users\Guillermo\Desktop\EAC convertidos\18 Cessa di pi resistere (Conte, chorus).wav
Peak level 88.6 %
Extraction speed 3.2 X
Track quality 100.0 %
Test CRC D3D88FEE
Copy CRC D3D88FEE
Copy OK
Track 19
Filename f:\Users\Guillermo\Desktop\EAC convertidos\19 Recitativo- Insomma, io ho tutti i torti....wav
Peak level 52.9 %
Extraction speed 2.4 X
Track quality 100.0 %
Test CRC E192682A
Copy CRC E192682A
Copy OK
Track 20
Filename f:\Users\Guillermo\Desktop\EAC convertidos\20 Di s felice innesto (Figaro, Rosina, Conte, tutti).wav
Peak level 100.0 %
Extraction speed 2.7 X
Track quality 100.0 %
Test CRC F31C4F8C
Copy CRC F31C4F8C
Copy OK
No errors occurred
End of status report
==== Log checksum F7DB13F43563B5A424E2D9D761092C3F3B6DFA753FA8941C411F7E9D04A1BA60 ====

Содержание индексной карты (.CUE)Содержание индексной карты (.CUE) CD 1

REM DISCID A20B710C
REM COMMENT "ExactAudioCopy v1.0b3"
FILE "01 Sinfonia.wav" WAVE
TRACK 01 AUDIO
INDEX 01 00:00:00
TRACK 02 AUDIO
INDEX 00 07:04:00
FILE "02 Piano, pianissimo (Fiorello , chorus, Conte).wav" WAVE
INDEX 01 00:00:00
FILE "03 Ecco ridente in cielo (Conte).wav" WAVE
TRACK 03 AUDIO
INDEX 01 00:00:00
FILE "04 Ehi, Fiorello... (Conte, Fiorello, chorus).wav" WAVE
TRACK 04 AUDIO
INDEX 01 00:00:00
FILE "05 Recitativo- Gente indiscreta.wav" WAVE
TRACK 05 AUDIO
INDEX 01 00:00:00
FILE "06 La ran la lera...Largo al factorum (Figaro).wav" WAVE
TRACK 06 AUDIO
INDEX 01 00:00:00
TRACK 07 AUDIO
INDEX 00 04:17:33
FILE "07 Recitativo- Ah, ah! che bella vita!....wav" WAVE
INDEX 01 00:00:00
TRACK 08 AUDIO
INDEX 00 07:03:46
FILE "08 Se il mio nome saper voi bramate (Conte, Rosina, Figaro).wav" WAVE
INDEX 01 00:00:00
FILE "09 Recitativo- Oh! cielo!.wav" WAVE
TRACK 09 AUDIO
INDEX 01 00:00:00
FILE "10 All'idea di quel metallo (Figaro, Conte).wav" WAVE
TRACK 10 AUDIO
INDEX 01 00:00:00
FILE "11 Recitativo- Evviva il mio padrone!.wav" WAVE
TRACK 11 AUDIO
INDEX 01 00:00:00
FILE "12 Una voce poco fa (Rosina).wav" WAVE
TRACK 12 AUDIO
INDEX 01 00:00:00

Содержание индексной карты (.CUE) CD 2

REM DISCID 730AB10A
REM COMMENT "ExactAudioCopy v1.0b3"
FILE "01 Atto 1 - 5b Recitativo- S , s , la vincer.wav" WAVE
TRACK 01 AUDIO
INDEX 01 00:00:00
FILE "02 Atto 1 - 6a La calunnia un venticello (Basilio).wav" WAVE
TRACK 02 AUDIO
INDEX 01 00:00:00
FILE "03 Atto 1 - 6b Recitativo- Ah! che ne dite.wav" WAVE
TRACK 03 AUDIO
INDEX 01 00:00:00
FILE "04 Atto 1 - 7a Dunque io son... tu non m'inganni (Rosina, Figaro).wav" WAVE
TRACK 04 AUDIO
INDEX 01 00:00:00
FILE "05 Atto 1 - 7b Recitativo- Ora mi sento meglio.wav" WAVE
TRACK 05 AUDIO
INDEX 01 00:00:00
FILE "06 Atto 1 - 8a A un dottor della mia sorte (Bartolo).wav" WAVE
TRACK 06 AUDIO
INDEX 01 00:00:00
FILE "07 Atto 1 - 8b Recitativo- Brontola quanto vuoi.wav" WAVE
TRACK 07 AUDIO
INDEX 01 00:00:00
FILE "08 Atto 1 - 9a Ehi, di casa!...buona gente!... (Conte, Bartolo, Rosina, Berta, Basilio, Figaro, chorus).wav" WAVE
TRACK 08 AUDIO
INDEX 01 00:00:00
FILE "09 Atto 1 - 9b Questa bestia di soldato (Conte, Bartolo, Rosina, Berta, Basilio, Figaro, Ufficiale, chorus).wav" WAVE
TRACK 09 AUDIO
INDEX 01 00:00:00
FILE "10 Atto 1 - 9c Mi d'esser con la testa (tutti).wav" WAVE
TRACK 10 AUDIO
INDEX 01 00:00:00

Содержание индексной карты (.CUE) CD 3

REM GENRE Opera
REM DATE 2011
REM DISCID 130E6C14
REM COMMENT "ExactAudioCopy v1.0b3"
FILE "01 Recitativo- Ma vedi il mio destino!.wav" WAVE
TRACK 01 AUDIO
INDEX 01 00:00:00
FILE "02 Pace e gioia sia con voi (Conte, Bartolo).wav" WAVE
TRACK 02 AUDIO
INDEX 01 00:00:00
FILE "03 Recitativo- Insomma, mio signore.wav" WAVE
TRACK 03 AUDIO
INDEX 01 00:00:00
FILE "04 Contro un cor che accende amore (Rosina, Conte).wav" WAVE
TRACK 04 AUDIO
INDEX 01 00:00:00
FILE "05 Recitativo- Bella voce! Bravissima!.wav" WAVE
TRACK 05 AUDIO
INDEX 01 00:00:00
FILE "06 Quando mi sei vicina (Bartolo).wav" WAVE
TRACK 06 AUDIO
INDEX 01 00:00:00
FILE "07 Recitativo- Bravo, signor barbiere.wav" WAVE
TRACK 07 AUDIO
INDEX 01 00:00:00
FILE "08 Don Basilio! - (Cosa veggo!) (Rosina, Conte, Figaro, Bartolo, Basilio).wav" WAVE
TRACK 08 AUDIO
INDEX 01 00:00:00
FILE "09 Ors , signor Don Bartolo (Figaro, Conte, Bartolo, Rosina).wav" WAVE
TRACK 09 AUDIO
INDEX 01 00:00:00
FILE "10 Ah! disgraziato me! (Bartolo, Berta).wav" WAVE
TRACK 10 AUDIO
INDEX 01 00:00:00
FILE "11 Il vicchiotto cerca moglie (Berta).wav" WAVE
TRACK 11 AUDIO
INDEX 01 00:00:00
FILE "12 Recitativo- Dunque voi Don Alonso.wav" WAVE
TRACK 12 AUDIO
INDEX 01 00:00:00
FILE "13 Temporale.wav" WAVE
TRACK 13 AUDIO
INDEX 01 00:00:00
FILE "14 Recitativo- Alfine, eccoci qua.wav" WAVE
TRACK 14 AUDIO
INDEX 01 00:00:00
FILE "15 Ah! qual colpo inaspettato (Figaro, Rosina, Conte).wav" WAVE
TRACK 15 AUDIO
INDEX 01 00:00:00
FILE "16 Recitativo- Ah! disgraziati noi!.wav" WAVE
TRACK 16 AUDIO
INDEX 01 00:00:00
FILE "17 Recitativo- Il Conte! Ah che mai sento!.wav" WAVE
TRACK 17 AUDIO
INDEX 01 00:00:00
FILE "18 Cessa di pi resistere (Conte, chorus).wav" WAVE
TRACK 18 AUDIO
INDEX 01 00:00:00
FILE "19 Recitativo- Insomma, io ho tutti i torti....wav" WAVE
TRACK 19 AUDIO
INDEX 01 00:00:00
FILE "20 Di s felice innesto (Figaro, Rosina, Conte, tutti).wav" WAVE
TRACK 20 AUDIO
INDEX 01 00:00:00

Треклист

Disc 1:
1. Sinfonia
Act 1:
2. No. 1. Introduzione. Piano, pianissimo
3. Cavatina: Ecco, ridente in cielo
4. Ehi, Fiorello?...
5. Recitativo. Gente indiscreta!...
6. No. 2. Cavatina. La ran la lera... Largo al factotum
7. Recitativo. Ah, ah! che bella vita!...
8. No. 3. Canzone. Se il mio nome saper voi bramate
9. Recitativo. Oh cielo!
10. No. 4. Duetto. All'idea di quel metallo
11. Recitativo. Evviva il mio padrone!
12. No. 5. Cavatina. Una voce poco fa
Disc 2:
1. Recitativo. Sì, sì, la vincerò
2. No. 6. Aria. La calumnia è un venticello
3. Recitativo. Ah! che ne dite?
4. No. 7. Duetto. Dunque io son... tu non m'inganni?
5. Recitativo. Ora mi sento meglio
6. No. 8. Aria. A un dottor della mia sorte
7. Recitativo. Brontola quanto vuoi
9. No. 9. Finale 1. Ehi, di casa!... Buona gente!...
10. Questa bestia di soldato
11. Mi par d'esser con la testa
Disc 3:
Act 2:
1. Recitativo. Ma vedi il mio destino!
2. No. 10. Duetto. Pace e gioia sia con voi
3. Recitativo. Insomma, mio signore
4. No. 11. Aria. Contro un cor che accende amore
5. Recitativo. Bella voce! Bravissima!
6. No. 12. Arietta. Quando mi sei vicina
7. Recitativo. Bravo, signor barbiere
8. No. 13. Quintetto. Don Basilio! - (Cosa veggo!)
9. Orsù, signor Don Bartolo...
10. Recitativo. Ah! disgraziato me!
11. No. 14. Aria. Il vecchiotto cerca moglie
12. Recitativo. Dunque voi Don Alonso non conoscete affatto?
13. No. 15. Temporale. Thunderstorm
14. Recitativo. Alfine, eccoci qua
15. No. 16. Terzetto. (Ah! qual colpo inaspettato!)
16. Recitativo. Ah, disgraziati noi!
17. No. 17. Recitativo strumentato. Il Conte! Ah, che mai sento!
18. No. 18. Aria. Cessa di più resistere
19. Recitativo. Insomma, io ho tutti i torti!...
20. No. 19. Finaletto 2. Di sì felice innesto



Показать сообщения:    

Текущее время: 07-Дек 21:25

Часовой пояс: UTC + 3


Вы не можете начинать темы
Вы не можете отвечать на сообщения
Вы не можете редактировать свои сообщения
Вы не можете удалять свои сообщения
Вы не можете голосовать в опросах
Вы не можете прикреплять файлы к сообщениям
Вы не можете скачивать файлы