(Classical) Martinu, Sibelius, Mustonen - Cello Sonatas - Steven Isserlis, Olli Mustonen - 2014, FLAC (image+.cue) lossless


 

[Цитировать]

Martinu, Sibelius, Mustonen - Cello Sonatas - Steven Isserlis, Olli Mustonen
Жанр: Classical
Страна-производитель диска: Sweden
Год издания диска: 2014
Издатель (лейбл): BIS
Номер по каталогу: BIS-SACD-2042
Дата записи: 2013
Аудиокодек: FLAC
Тип рипа: image+.cue
Битрейт аудио: lossless
Продолжительность: 78:15
Источник: собственный рип
Наличие сканов в содержимом раздачи: да
Треклист:
Bohuslav Martinů (1890-1959)
[1]-[3] Sonata No.1 for cello and piano, H277
Olli Mustonen (b.1967)
[4]-[7] Sonata for cello and piano (2006)
Bohuslav Martinů
[8]-[10] Sonata No.2 for cello and piano, H286
Jean Sibelius (1865-1957)
[11] Malinconia, Op.20
Bohuslav Martinů
[12]-[14] Sonata No.3 for cello and piano, H340
Исполнители:
Steven Isserlis cello
Olli Mustonen piano

Лог создания рипа

Exact Audio Copy V1.0 beta 3 from 29. August 2011
EAC extraction logfile from 4. March 2015, 1:02
Steven Isserlis, Olli Mustonen / Martinu, Mustonen, Sibelius - Cello Sonatas
Used drive : HL-DT-STDVDRAM GU70N Adapter: 0 ID: 0
Read mode : Secure
Utilize accurate stream : Yes
Defeat audio cache : Yes
Make use of C2 pointers : No
Read offset correction : 48
Overread into Lead-In and Lead-Out : No
Fill up missing offset samples with silence : Yes
Delete leading and trailing silent blocks : No
Null samples used in CRC calculations : Yes
Used interface : Native Win32 interface for Win NT & 2000
Used output format : User Defined Encoder
Selected bitrate : 128 kBit/s
Quality : High
Add ID3 tag : No
Command line compressor : C:\Program Files (x86)\Exact Audio Copy\Flac\flac.exe
Additional command line options : -V -8 -T "Date=%year%" -T "Genre=%genre%" %source%
TOC of the extracted CD
Track | Start | Length | Start sector | End sector
---------------------------------------------------------
1 | 0:00.00 | 5:09.21 | 0 | 23195
2 | 5:09.21 | 5:05.69 | 23196 | 46139
3 | 10:15.15 | 5:53.70 | 46140 | 72684
4 | 16:09.10 | 4:16.01 | 72685 | 91885
5 | 20:25.11 | 4:17.09 | 91886 | 111169
6 | 24:42.20 | 1:32.65 | 111170 | 118134
7 | 26:15.10 | 4:45.46 | 118135 | 139555
8 | 31:00.56 | 6:42.38 | 139556 | 169743
9 | 37:43.19 | 6:16.09 | 169744 | 197952
10 | 43:59.28 | 5:17.06 | 197953 | 221733
11 | 49:16.34 | 10:55.71 | 221734 | 270929
12 | 60:12.30 | 6:52.07 | 270930 | 301836
13 | 67:04.37 | 5:32.51 | 301837 | 326787
14 | 72:37.13 | 5:38.32 | 326788 | 352169
Range status and errors
Selected range
Filename C:\temp\BIS-SACD-2042 - Martinu, Sibelius, Mustonen - Cello Sonatas\Martinu, Mustonen, Sibelius - Cello Sonatas.wav
Peak level 97.8 %
Extraction speed 2.3 X
Range quality 100.0 %
Test CRC 96CFF976
Copy CRC 96CFF976
Copy OK
No errors occurred
AccurateRip summary
Track 1 accurately ripped (confidence 2) [A70426AC] (AR v2)
Track 2 accurately ripped (confidence 2) [D8F9F428] (AR v2)
Track 3 accurately ripped (confidence 2) [51A74C93] (AR v2)
Track 4 accurately ripped (confidence 2) [6BD7DB9A] (AR v2)
Track 5 accurately ripped (confidence 2) [B02121B7] (AR v2)
Track 6 accurately ripped (confidence 2) [80334393] (AR v2)
Track 7 accurately ripped (confidence 2) [9EB368DC] (AR v2)
Track 8 accurately ripped (confidence 2) [E5E265B2] (AR v2)
Track 9 accurately ripped (confidence 2) [04BF8852] (AR v2)
Track 10 accurately ripped (confidence 2) [F9E15FCE] (AR v2)
Track 11 accurately ripped (confidence 2) [0B8DDCE4] (AR v2)
Track 12 accurately ripped (confidence 2) [0A8A0B82] (AR v2)
Track 13 accurately ripped (confidence 2) [C7E25709] (AR v2)
Track 14 accurately ripped (confidence 2) [FF445283] (AR v2)
All tracks accurately ripped
End of status report
==== Log checksum 7D26556060A11E218BDA4A2CBA7433FC969AC3A8F965897673232FC398189E4A ====



Показать сообщения:    

Текущее время: 09-Дек 20:22

Часовой пояс: UTC + 3


Вы не можете начинать темы
Вы не можете отвечать на сообщения
Вы не можете редактировать свои сообщения
Вы не можете удалять свои сообщения
Вы не можете голосовать в опросах
Вы не можете прикреплять файлы к сообщениям
Вы не можете скачивать файлы